<?xml version="1.0" standalone="no"?>
<!DOCTYPE svg PUBLIC "-//W3C//DTD SVG 1.1//EN" "http://www.w3.org/Graphics/SVG/1.1/DTD/svg11.dtd" >
<svg xmlns="http://www.w3.org/2000/svg" xmlns:xlink="http://www.w3.org/1999/xlink" version="1.1">
<metadata>
Created by FontForge 20141024 at Tue Dec 16 10:20:31 2014
 By System Administrator
Copyright 2000, 2004 , 2005Adobe Systems Incorporated. All Rights Reserved. U.S. Patent D454,582.Myriad is a registered trademark of Adobe Systems Incorporated.
</metadata>
<defs>
<font id="MyriadPro-Cond" horiz-adv-x="300" >
  <font-face 
    font-family="Myriad Pro"
    font-weight="400"
    font-stretch="condensed"
    units-per-em="1000"
    panose-1="2 11 5 6 3 4 3 2 2 4"
    ascent="750"
    descent="-250"
    x-height="484"
    cap-height="674"
    bbox="-140 -250 970 935"
    underline-thickness="50"
    underline-position="-50"
    stemh="58"
    stemv="77"
    unicode-range="U+0020-FB04"
  />
<missing-glyph horiz-adv-x="500" 
d="M0 0v700h500v-700h-500zM250 395l170 255h-340zM280 350l170 -255v510zM80 50h340l-170 255zM50 605v-510l170 255z" />
    <glyph glyph-name="f_f" unicode="ff" horiz-adv-x="451" 
d="M370 0h-77v425h-146v-425h-77v425h-61v59h61v24c0 60 14 110 44 142c23 24 56 38 100 38c20 0 40 -5 50 -9l-15 -61c-9 4 -22 7 -36 7c-50 0 -66 -41 -66 -117v-24h146v29c0 52 8 106 43 146c28 31 67 41 96 41c27 0 47 -5 61 -12l-13 -60c-9 4 -23 8 -42 8
c-55 0 -68 -59 -68 -122v-30h88v-59h-88v-425z" />
    <glyph glyph-name="f_f_i" unicode="ffi" horiz-adv-x="645" 
d="M568 677l-17 -60c-17 8 -45 19 -80 19c-78 0 -97 -54 -97 -128v-24h217v-484h-77v425h-140v-425h-77v425h-150v-425h-77v425h-61v59h61v18c0 62 14 111 52 147c25 25 62 39 101 39c29 0 54 -9 67 -15l-22 -59c-12 6 -27 11 -44 11c-24 0 -43 -10 -55 -27
c-17 -22 -22 -56 -22 -95v-19h150v32c0 86 42 184 176 184c41 0 77 -12 95 -23z" />
    <glyph glyph-name="f_f_j" unicode="ffj" horiz-adv-x="642" 
d="M568 677l-17 -60c-17 8 -45 19 -80 19c-78 0 -97 -54 -97 -128v-24h217v-453c0 -102 -14 -149 -49 -185c-29 -30 -76 -45 -106 -46l-10 61c22 6 49 14 65 38c18 26 23 62 23 154v372h-140v-425h-77v425h-150v-425h-77v425h-61v59h61v18c0 62 14 111 52 147
c25 25 62 39 101 39c29 0 54 -9 67 -15l-22 -59c-12 6 -27 11 -44 11c-24 0 -43 -10 -55 -27c-17 -22 -22 -56 -22 -95v-19h150v32c0 86 42 184 176 184c41 0 77 -12 95 -23z" />
    <glyph glyph-name="f_f_l" unicode="ffl" horiz-adv-x="645" 
d="M290 673l-22 -59c-12 6 -27 11 -44 11c-24 0 -43 -10 -55 -27c-17 -22 -22 -56 -22 -95v-19h150v26c0 51 15 110 55 148c28 26 65 42 123 42c42 0 89 -11 117 -25v-675h-77v627c-14 6 -32 10 -53 10c-67 0 -88 -58 -88 -122v-31h83v-59h-83v-425h-77v425h-150v-425h-77
v425h-61v59h61v18c0 62 14 111 52 147c25 25 62 39 101 39c29 0 54 -9 67 -15z" />
    <glyph glyph-name="f_i" unicode="fi" horiz-adv-x="418" 
d="M147 0h-77v425h-61v59h61v32c0 86 42 184 176 184c41 0 77 -12 95 -23l-17 -60c-17 8 -46 19 -80 19c-78 0 -97 -54 -97 -128v-24h217v-484h-77v425h-140v-425z" />
    <glyph glyph-name="f_j" unicode="fj" horiz-adv-x="415" 
d="M147 0h-77v425h-61v59h61v32c0 86 42 184 176 184c41 0 77 -12 95 -23l-17 -60c-17 8 -46 19 -80 19c-78 0 -97 -54 -97 -128v-24h217v-453c0 -102 -14 -149 -49 -185c-29 -30 -76 -45 -106 -46l-10 61c22 6 49 14 65 38c18 26 23 62 23 154v372h-140v-425z" />
    <glyph glyph-name="f_l" unicode="fl" horiz-adv-x="418" 
d="M147 0h-77v425h-61v59h61v26c0 51 15 110 55 148c28 26 65 42 123 42c42 0 89 -11 117 -25v-675h-77v627c-14 6 -33 10 -53 10c-67 0 -88 -58 -88 -122v-31h83v-59h-83v-425z" />
    <glyph glyph-name=".notdef" horiz-adv-x="500" 
d="M0 0v700h500v-700h-500zM250 395l170 255h-340zM280 350l170 -255v510zM80 50h340l-170 255zM50 605v-510l170 255z" />
    <glyph glyph-name="space" unicode=" " horiz-adv-x="157" 
 />
    <glyph glyph-name="exclam" unicode="!" horiz-adv-x="204" 
d="M134 188h-64l-10 486h85zM102 -8h-1c-27 0 -48 22 -48 54c0 33 21 55 49 55c30 0 49 -22 49 -55c0 -32 -18 -54 -49 -54z" />
    <glyph glyph-name="quotedbl" unicode="&#x22;" horiz-adv-x="309" 
d="M50 683h71l-14 -233h-43zM189 683h71l-13 -233h-44z" />
    <glyph glyph-name="numbersign" unicode="#" horiz-adv-x="385" 
d="M145 251h77l19 153h-77zM113 0h-52l26 199h-65v52h72l19 153h-69v51h76l25 195h51l-25 -195h78l25 195h50l-25 -195h64v-51h-71l-19 -153h70v-50h-76l-26 -201h-52l26 201h-77z" />
    <glyph glyph-name="dollar" unicode="$" horiz-adv-x="385" 
d="M217 -84h-55v100c-46 1 -87 18 -111 34l18 60c27 -17 64 -32 102 -32c59 0 92 44 92 101s-28 95 -86 130c-61 36 -123 81 -123 165c0 80 51 138 113 154v97h56v-91c41 0 77 -14 96 -27l-20 -59c-18 11 -47 25 -86 25c-55 0 -85 -44 -85 -87c0 -59 28 -81 94 -120
c79 -46 114 -103 114 -178c0 -95 -52 -151 -119 -166v-106z" />
    <glyph glyph-name="percent" unicode="%" horiz-adv-x="645" 
d="M153 658h1c73 0 121 -77 121 -196c0 -137 -60 -198 -122 -198c-71 0 -123 75 -123 196c0 125 54 198 123 198zM153 610h-1c-49 0 -63 -83 -63 -149c0 -68 13 -149 64 -149s63 82 63 148c0 65 -11 150 -63 150zM173 -14h-49l346 677h49zM493 387h1c73 0 121 -78 121 -197
c0 -136 -60 -197 -122 -197c-72 0 -123 74 -123 196c0 124 54 198 123 198zM493 339h-1c-50 0 -63 -83 -63 -149c0 -68 16 -150 64 -150c51 0 63 82 63 149c0 65 -12 150 -63 150z" />
    <glyph glyph-name="ampersand" unicode="&#x26;" horiz-adv-x="491" 
d="M474 0h-86c-13 18 -23 31 -46 63c-36 -46 -91 -71 -145 -71c-113 0 -168 93 -168 187c0 73 32 139 103 192v3c-29 46 -49 95 -49 151c0 82 51 157 138 157c61 0 118 -46 118 -139c0 -66 -30 -120 -115 -181v-3c25 -42 76 -121 128 -191c30 62 39 148 41 193h68
c-7 -79 -28 -176 -73 -244c12 -19 38 -53 86 -117zM209 53h1c40 0 74 22 99 59c-58 78 -105 149 -146 212c-30 -29 -60 -76 -60 -137c0 -69 36 -134 106 -134zM214 625h-1c-39 0 -59 -42 -59 -95c0 -47 12 -82 38 -123c52 39 80 81 80 133c0 41 -15 85 -58 85z" />
    <glyph glyph-name="quoteright" unicode="&#x2019;" horiz-adv-x="177" 
d="M78 674l78 10c-21 -81 -64 -185 -90 -230l-46 -7c21 58 48 158 58 227z" />
    <glyph glyph-name="parenleft" unicode="(" horiz-adv-x="253" 
d="M168 692h60c-57 -90 -104 -225 -104 -407c0 -179 47 -314 104 -405h-60c-52 76 -110 210 -110 406c2 196 58 331 110 406z" />
    <glyph glyph-name="parenright" unicode=")" horiz-adv-x="253" 
d="M85 -120h-60c57 90 104 227 104 407s-47 315 -104 405h60c52 -74 110 -207 110 -405c-2 -198 -58 -330 -110 -407z" />
    <glyph glyph-name="asterisk" unicode="*" horiz-adv-x="373" 
d="M244 682l54 -30l-85 -120v-2l135 17v-60l-135 15v-2l87 -115l-56 -32l-59 132l-2 -1l-60 -134l-51 33l85 120v1l-133 -17v60l131 -16l1 2l-83 116l52 30l60 -128h2z" />
    <glyph glyph-name="plus" unicode="+" horiz-adv-x="596" 
d="M270 532h56v-238h230v-54h-230v-240h-56v240h-230v54h230v238z" />
    <glyph glyph-name="comma" unicode="," horiz-adv-x="194" 
d="M70 -119l-53 -7c21 58 48 164 58 233l87 10c-22 -81 -65 -191 -92 -236z" />
    <glyph glyph-name="hyphen" unicode="-" horiz-adv-x="279" 
d="M30 291h219v-60h-219v60z" />
    <glyph glyph-name="period" unicode="." horiz-adv-x="194" 
d="M100 -8h-1c-28 0 -50 23 -50 58c0 34 23 59 51 59c31 0 51 -24 51 -59s-19 -58 -51 -58z" />
    <glyph glyph-name="slash" unicode="/" horiz-adv-x="281" 
d="M65 -40h-57l215 722h58z" />
    <glyph glyph-name="zero" unicode="0" horiz-adv-x="385" 
d="M198 658c105 0 160 -125 160 -332c0 -237 -75 -334 -169 -334c-101 0 -162 120 -162 332c0 219 65 334 171 334zM194 592c-62 0 -90 -111 -90 -267c0 -157 27 -267 91 -267c61 0 86 111 86 267c0 152 -25 267 -87 267z" />
    <glyph glyph-name="one" unicode="1" horiz-adv-x="385" 
d="M188 0v572h-2l-108 -62l-15 60l137 80h64v-650h-76z" />
    <glyph glyph-name="two" unicode="2" horiz-adv-x="385" 
d="M345 0h-313v50l55 75c77 107 169 229 169 351c0 72 -32 116 -93 116c-47 0 -77 -25 -94 -36l-19 58c23 19 68 44 127 44c108 0 155 -80 155 -178c0 -122 -80 -240 -160 -350l-44 -60v-2h217v-68z" />
    <glyph glyph-name="three" unicode="3" horiz-adv-x="385" 
d="M28 22l17 61c20 -12 55 -27 94 -27c67 0 112 49 112 130c0 85 -53 134 -131 134h-18v58h15c46 1 117 36 117 116c0 65 -35 100 -86 100c-32 0 -60 -16 -81 -31l-17 58c24 19 68 37 117 37c92 0 144 -66 144 -150c0 -65 -34 -122 -97 -152v-2c58 -16 114 -68 114 -170
c0 -106 -68 -192 -186 -192c-42 0 -88 12 -114 30z" />
    <glyph glyph-name="four" unicode="4" horiz-adv-x="385" 
d="M304 0h-70v179h-216v52l211 419h75v-408h71v-63h-71v-179zM91 242h143v184c0 45 3 85 6 128h-4c-22 -52 -36 -83 -55 -123l-90 -187v-2z" />
    <glyph glyph-name="five" unicode="5" horiz-adv-x="385" 
d="M333 650v-68h-175l-27 -173c8 2 15 2 24 2c35 0 89 -15 124 -49c34 -34 54 -82 54 -148c0 -129 -81 -222 -197 -222c-39 0 -84 11 -110 28l17 62c20 -12 55 -26 91 -26c66 0 123 51 123 150c0 103 -63 146 -147 146c-24 0 -39 -1 -51 -3l41 301h233z" />
    <glyph glyph-name="six" unicode="6" horiz-adv-x="385" 
d="M319 658v-65c-13 -1 -27 -3 -46 -7c-108 -26 -151 -134 -167 -234h3c25 37 61 62 110 62c83 0 140 -76 140 -200c0 -123 -56 -222 -160 -222c-113 0 -170 115 -170 264c0 126 33 224 84 293c39 55 101 91 157 103c21 4 38 5 49 6zM199 52h1c43 0 82 43 82 156
c0 98 -34 147 -87 147c-32 0 -65 -22 -84 -70c-3 -7 -6 -20 -6 -39c1 -133 42 -194 94 -194z" />
    <glyph glyph-name="seven" unicode="7" horiz-adv-x="385" 
d="M37 650h313v-46l-210 -604h-75l206 580v2h-234v68z" />
    <glyph glyph-name="eight" unicode="8" horiz-adv-x="385" 
d="M135 345l-1 2c-54 37 -85 94 -85 149c0 100 71 162 152 162c93 0 139 -78 139 -153c0 -57 -27 -112 -87 -153v-3c60 -40 104 -99 104 -177c0 -101 -67 -180 -167 -180c-108 0 -162 86 -162 167c0 91 54 149 107 186zM193 49c48 0 88 37 88 118c0 75 -43 117 -93 150
c-52 -32 -84 -88 -84 -145c0 -73 33 -123 89 -123zM195 601c-43 0 -72 -41 -72 -100c0 -66 40 -99 80 -125c39 28 65 71 65 120c0 63 -26 105 -73 105z" />
    <glyph glyph-name="nine" unicode="9" horiz-adv-x="385" 
d="M67 -8v66c17 0 31 2 48 6c33 8 65 26 89 51c36 40 65 99 76 185h-3c-24 -31 -58 -55 -105 -55c-81 0 -142 75 -142 193c0 119 64 220 164 220c111 0 163 -117 163 -261c0 -128 -32 -229 -86 -301c-38 -52 -93 -86 -150 -99c-21 -4 -38 -5 -54 -5zM190 598h-1
c-38 0 -83 -42 -83 -153c0 -96 36 -142 88 -142c32 0 64 22 80 58c4 11 6 20 6 42c0 136 -39 195 -90 195z" />
    <glyph glyph-name="colon" unicode=":" horiz-adv-x="194" 
d="M100 359h-1c-28 0 -49 23 -49 56s22 57 50 57c31 0 50 -23 50 -57c0 -33 -18 -56 -50 -56zM100 -8h-1c-28 0 -49 23 -49 56s22 58 50 58c31 0 50 -24 50 -58c0 -33 -18 -56 -50 -56z" />
    <glyph glyph-name="semicolon" unicode=";" horiz-adv-x="194" 
d="M69 -119l-51 -7c21 58 48 164 58 233l85 10c-22 -81 -65 -191 -92 -236zM111 359h-1c-28 0 -49 23 -49 56s22 57 50 57c31 0 50 -23 50 -57c0 -33 -18 -56 -50 -56z" />
    <glyph glyph-name="less" unicode="&#x3c;" horiz-adv-x="596" 
d="M66 242v48l464 242v-67l-388 -198v-2l388 -199v-66z" />
    <glyph glyph-name="equal" unicode="=" horiz-adv-x="596" 
d="M556 336h-516v55h516v-55zM556 147h-516v55h516v-55z" />
    <glyph glyph-name="greater" unicode="&#x3e;" horiz-adv-x="596" 
d="M530 295v-58l-464 -237v66l400 199v2l-400 199v66z" />
    <glyph glyph-name="question" unicode="?" horiz-adv-x="309" 
d="M173 184h-68l-2 15c-10 59 1 123 42 190c33 57 58 94 58 149c0 57 -33 81 -77 81c-25 0 -50 -7 -66 -19l-16 60c16 11 56 26 99 26c100 0 139 -67 139 -138c0 -73 -42 -129 -75 -184c-31 -54 -42 -96 -35 -163zM135 -8h-1c-28 0 -49 23 -49 55c0 34 22 57 50 57
c31 0 50 -23 50 -57c0 -32 -18 -55 -50 -55z" />
    <glyph glyph-name="at" unicode="@" horiz-adv-x="590" 
d="M348 233l29 146c-7 4 -16 5 -28 5c-76 0 -136 -109 -136 -208c0 -45 17 -63 40 -63c41 0 83 62 95 120zM409 -29l12 -34c-44 -28 -94 -38 -148 -38c-131 0 -238 92 -238 288c0 221 136 408 316 408c135 0 209 -102 209 -241c0 -189 -65 -289 -154 -289
c-37 0 -62 26 -58 80h-3c-34 -63 -78 -80 -109 -80c-47 0 -81 37 -81 109c0 112 73 254 214 254c25 0 53 -6 70 -14l-40 -202c-14 -72 -5 -105 21 -105c48 0 95 92 95 228c0 137 -54 220 -171 220c-139 0 -264 -151 -264 -369c0 -163 78 -247 206 -247c49 0 86 13 123 32z
" />
    <glyph glyph-name="A" unicode="A" horiz-adv-x="435" 
d="M290 202h-149l-45 -202h-74l154 674h85l150 -674h-76zM152 264h128l-35 171c-10 48 -19 104 -27 154h-4c-8 -51 -18 -109 -27 -154z" />
    <glyph glyph-name="B" unicode="B" horiz-adv-x="416" 
d="M60 3v661c32 8 70 13 113 13c61 0 113 -13 149 -47c29 -27 44 -67 44 -115c0 -69 -38 -124 -104 -150v-2c78 -21 125 -84 125 -172c0 -56 -18 -101 -48 -134c-38 -43 -101 -61 -178 -61c-50 0 -80 3 -101 7zM137 612v-224h35c63 0 117 48 117 119c0 62 -29 110 -111 110
c-18 0 -32 -2 -41 -5zM137 329v-268c9 -2 22 -4 39 -4c80 0 132 47 132 134c0 93 -65 137 -137 138h-34z" />
    <glyph glyph-name="C" unicode="C" horiz-adv-x="373" 
d="M342 77l12 -65c-21 -11 -54 -18 -96 -18c-132 0 -226 106 -226 335c0 266 132 351 238 351c41 0 70 -8 84 -17l-17 -65c-16 7 -33 14 -68 14c-72 0 -156 -70 -156 -276s76 -274 158 -274c29 0 55 7 71 15z" />
    <glyph glyph-name="D" unicode="D" horiz-adv-x="445" 
d="M60 3v661c30 9 65 13 104 13c71 0 121 -18 158 -51c52 -45 91 -132 91 -273c0 -154 -38 -238 -81 -284c-44 -50 -108 -73 -186 -73c-31 0 -63 2 -86 7zM137 610v-547c11 -2 22 -2 29 -2c85 0 167 61 167 290c0 170 -52 263 -160 263c-12 0 -26 -1 -36 -4z" />
    <glyph glyph-name="E" unicode="E" horiz-adv-x="354" 
d="M306 385v-65h-169v-253h192v-67h-269v674h257v-67h-180v-222h169z" />
    <glyph glyph-name="F" unicode="F" horiz-adv-x="345" 
d="M60 0v674h257v-67h-180v-236h168v-65h-168v-306h-77z" />
    <glyph glyph-name="G" unicode="G" horiz-adv-x="436" 
d="M392 352v-335c-29 -12 -77 -23 -120 -23c-59 0 -114 16 -159 66c-49 52 -82 145 -81 268c1 262 135 352 254 352c42 0 75 -8 96 -19l-17 -66c-18 9 -42 16 -78 16c-84 0 -175 -67 -175 -276c0 -208 79 -275 160 -275c26 0 41 5 47 8v220h-87v64h160z" />
    <glyph glyph-name="H" unicode="H" horiz-adv-x="463" 
d="M60 674h77v-289h189v289h77v-674h-77v315h-189v-315h-77v674z" />
    <glyph glyph-name="I" unicode="I" horiz-adv-x="199" 
d="M60 674h77v-674h-77v674z" />
    <glyph glyph-name="J" unicode="J" horiz-adv-x="265" 
d="M134 189v485h77v-484c0 -151 -61 -198 -158 -198c-19 0 -37 2 -50 7l7 65c10 -3 23 -4 37 -4c55 0 87 22 87 129z" />
    <glyph glyph-name="K" unicode="K" horiz-adv-x="404" 
d="M60 0v674h77v-320h2c15 28 29 55 42 81l126 239h85l-165 -288l169 -386h-83l-138 325l-38 -65v-260h-77z" />
    <glyph glyph-name="L" unicode="L" horiz-adv-x="344" 
d="M60 0v674h77v-609h190v-65h-267z" />
    <glyph glyph-name="M" unicode="M" horiz-adv-x="599" 
d="M482 0l-14 290c-5 89 -10 188 -7 264h-4c-15 -75 -33 -155 -54 -234l-83 -316h-49l-79 303c-22 86 -42 169 -55 247h-3c0 -79 -4 -173 -8 -269l-13 -285h-69l40 674h83l79 -308c23 -89 40 -155 54 -232h3c13 77 28 141 50 232l76 308h86l39 -674h-72z" />
    <glyph glyph-name="N" unicode="N" horiz-adv-x="465" 
d="M130 0h-70v674h73l124 -316c28 -72 63 -162 86 -235h2c-6 106 -9 193 -9 310v241h69v-674h-73l-128 324c-27 68 -56 145 -80 229h-2c6 -90 8 -176 8 -320v-233z" />
    <glyph glyph-name="O" unicode="O" horiz-adv-x="446" 
d="M230 682c115 0 184 -125 184 -340c0 -253 -87 -350 -195 -350c-112 0 -187 119 -187 346c0 223 80 344 198 344zM223 614c-84 0 -111 -140 -111 -277c0 -139 27 -277 112 -277c87 0 110 147 110 279c0 126 -23 275 -111 275z" />
    <glyph glyph-name="P" unicode="P" horiz-adv-x="399" 
d="M60 0v664c31 8 68 13 112 13c62 0 114 -15 149 -50c33 -32 50 -81 50 -139c0 -62 -15 -104 -41 -138c-37 -50 -99 -75 -159 -75c-13 0 -23 0 -34 1v-276h-77zM137 609v-268c9 -2 17 -3 30 -3c76 0 127 50 127 145c0 69 -29 131 -114 131c-18 0 -33 -2 -43 -5z" />
    <glyph glyph-name="Q" unicode="Q" horiz-adv-x="446" 
d="M429 -29l-28 -62c-51 21 -119 53 -155 73c-12 6 -20 10 -25 10c-111 0 -189 111 -189 346c0 225 80 344 199 344c115 0 183 -126 183 -340c0 -184 -44 -285 -115 -319v-4c45 -19 91 -34 130 -48zM225 60h1c85 0 108 145 108 279c0 129 -23 275 -109 275
c-87 0 -114 -147 -113 -276c-1 -133 24 -278 113 -278z" />
    <glyph glyph-name="R" unicode="R" horiz-adv-x="409" 
d="M60 0v664c33 9 73 13 111 13c67 0 117 -14 152 -48c33 -34 47 -79 47 -132c0 -86 -40 -142 -108 -173v-2c50 -15 76 -63 91 -151c15 -93 29 -150 38 -171h-78c-10 20 -23 84 -36 167c-15 92 -44 127 -110 127h-30v-294h-77zM137 611v-258h32c74 0 123 54 123 135
c0 78 -32 126 -115 127c-15 0 -30 -1 -40 -4z" />
    <glyph glyph-name="S" unicode="S" horiz-adv-x="361" 
d="M28 23l17 66c23 -15 63 -27 97 -27c70 0 112 46 112 114c0 62 -36 100 -89 140c-53 37 -127 100 -127 187c0 102 71 177 178 177c42 0 79 -13 95 -25l-19 -66c-17 12 -45 23 -80 23c-66 0 -97 -50 -97 -96c0 -67 35 -93 99 -139c81 -57 117 -119 117 -194
c0 -116 -82 -189 -189 -189c-46 0 -95 15 -114 29z" />
    <glyph glyph-name="T" unicode="T" horiz-adv-x="354" 
d="M139 0v605h-123v69h323v-69h-123v-605h-77z" />
    <glyph glyph-name="U" unicode="U" horiz-adv-x="457" 
d="M59 674h77v-452c0 -121 40 -162 92 -162c57 0 93 44 93 162v452h77v-440c0 -175 -72 -242 -172 -242c-101 0 -167 66 -167 233v449z" />
    <glyph glyph-name="V" unicode="V" horiz-adv-x="421" 
d="M249 0h-79l-154 674h82l66 -316c16 -76 36 -173 48 -259h3c10 87 29 181 45 261l64 314h82z" />
    <glyph glyph-name="W" unicode="W" horiz-adv-x="654" 
d="M222 0h-72l-130 674h80l57 -325c14 -85 25 -160 33 -243h4c8 85 24 158 40 244l62 324h66l62 -317c15 -80 30 -157 39 -251h3c11 97 23 171 36 247l56 321h75l-131 -674h-75l-65 328c-13 71 -26 147 -34 221h-2c-10 -76 -21 -149 -37 -224z" />
    <glyph glyph-name="X" unicode="X" horiz-adv-x="392" 
d="M378 0h-81l-61 162c-14 37 -26 72 -41 118h-3c-15 -45 -28 -84 -41 -120l-58 -160h-79l139 344l-134 330h80l60 -156c13 -31 24 -63 40 -107h2c15 47 25 77 36 110l55 153h79l-132 -328z" />
    <glyph glyph-name="Y" unicode="Y" horiz-adv-x="394" 
d="M235 0h-77v285l-148 389h81l60 -169c17 -47 35 -100 50 -152h2c14 52 31 103 49 155l57 166h81l-155 -386v-288z" />
    <glyph glyph-name="Z" unicode="Z" horiz-adv-x="358" 
d="M20 0v46l231 559v3h-212v66h298v-52l-227 -553v-3h226v-66h-316z" />
    <glyph glyph-name="bracketleft" unicode="[" horiz-adv-x="253" 
d="M223 -112h-149v798h149v-53h-87v-692h87v-53z" />
    <glyph glyph-name="backslash" unicode="\" horiz-adv-x="263" 
d="M255 -40h-58l-196 722h58z" />
    <glyph glyph-name="bracketright" unicode="]" horiz-adv-x="253" 
d="M31 686h148v-798h-148v53h86v692h-86v53z" />
    <glyph glyph-name="asciicircum" unicode="^" horiz-adv-x="596" 
d="M532 189h-65l-168 388h-3l-168 -388h-64l206 461h56z" />
    <glyph glyph-name="underscore" unicode="_" horiz-adv-x="500" 
d="M0 -75h500v-50h-500v50z" />
    <glyph glyph-name="quoteleft" unicode="&#x2018;" horiz-adv-x="177" 
d="M100 457l-78 -10c21 80 64 185 90 230l46 6c-21 -57 -48 -158 -58 -226z" />
    <glyph glyph-name="a" unicode="a" horiz-adv-x="364" 
d="M310 319v-209c0 -37 0 -79 5 -110h-70l-5 51h-3c-21 -37 -55 -59 -96 -59c-65 0 -115 55 -115 138c0 121 97 175 206 176v15c0 65 -16 110 -77 110c-30 0 -57 -10 -80 -25l-17 54c20 15 65 32 113 32c97 0 139 -64 139 -173zM234 152v98c-40 0 -133 -7 -133 -112
c0 -63 32 -86 59 -86c34 0 63 25 72 73c2 9 2 19 2 27z" />
    <glyph glyph-name="b" unicode="b" horiz-adv-x="399" 
d="M53 116v576h77v-265h2c25 48 61 65 102 65c75 0 132 -87 132 -245c0 -175 -72 -255 -147 -255c-51 0 -77 30 -96 71h-3l-5 -63h-66c1 28 4 83 4 116zM130 306v-135c0 -11 0 -22 3 -30c18 -72 51 -85 72 -85c62 0 84 84 84 187c0 97 -23 183 -85 183
c-36 0 -66 -45 -72 -86c-2 -11 -2 -23 -2 -34z" />
    <glyph glyph-name="c" unicode="c" horiz-adv-x="302" 
d="M280 71l10 -59c-17 -10 -46 -18 -80 -18c-106 0 -177 85 -177 245c0 139 70 252 191 252c26 0 54 -7 68 -15l-15 -63c-10 5 -30 13 -55 13c-77 0 -112 -92 -112 -187c0 -113 43 -181 114 -181c21 0 38 5 56 13z" />
    <glyph glyph-name="d" unicode="d" horiz-adv-x="399" 
d="M269 692h76v-576c0 -33 3 -88 4 -116h-66l-5 61h-3c-16 -35 -50 -69 -101 -69c-82 0 -141 89 -141 248c0 172 71 252 146 252c35 0 69 -17 88 -58h2v258zM269 171v129c0 10 0 21 -1 32c-5 50 -35 94 -72 94c-64 0 -86 -89 -86 -186c0 -102 26 -184 82 -184
c24 0 57 13 74 83c2 9 3 20 3 32z" />
    <glyph glyph-name="e" unicode="e" horiz-adv-x="363" 
d="M333 235h-225c1 -148 59 -180 115 -180c33 0 61 8 80 19l12 -57c-27 -15 -68 -23 -106 -23c-116 0 -176 95 -176 243c0 157 66 255 163 255c99 0 138 -104 138 -214c0 -18 0 -31 -1 -43zM109 292h151c2 97 -35 140 -72 140c-50 0 -76 -74 -79 -140z" />
    <glyph glyph-name="f" unicode="f" horiz-adv-x="228" 
d="M147 0h-77v425h-61v59h61v29c0 52 8 106 43 146c28 31 67 41 97 41c26 0 46 -5 60 -12l-13 -60c-9 4 -22 8 -42 8c-55 0 -68 -59 -68 -122v-30h88v-59h-88v-425z" />
    <glyph glyph-name="g" unicode="g" horiz-adv-x="399" 
d="M346 333v-271c0 -127 -16 -175 -48 -210c-29 -33 -75 -52 -129 -52c-41 0 -81 10 -106 24l18 60c19 -10 51 -21 90 -21c61 0 99 38 99 148v49h-2c-17 -38 -52 -59 -93 -59c-86 0 -142 97 -142 239c0 178 81 252 152 252c52 0 76 -34 90 -63h2l4 55h69
c-1 -34 -4 -77 -4 -151zM270 177v140c0 12 -1 25 -4 35c-9 33 -26 74 -70 74c-56 0 -86 -75 -86 -182c0 -124 39 -180 86 -180c23 0 53 11 69 69c4 15 5 30 5 44z" />
    <glyph glyph-name="h" unicode="h" horiz-adv-x="405" 
d="M54 0v692h77v-260h2c10 17 25 32 40 42c18 11 37 18 65 18c61 0 113 -49 113 -171v-321h-77v312c0 59 -13 115 -65 115c-36 0 -63 -26 -75 -77c-2 -11 -3 -25 -3 -37v-313h-77z" />
    <glyph glyph-name="i" unicode="i" horiz-adv-x="184" 
d="M131 0h-77v484h77v-484zM91 659c28 0 46 -20 46 -50c1 -30 -18 -50 -47 -50c-25 0 -44 20 -44 50s20 50 45 50z" />
    <glyph glyph-name="j" unicode="j" horiz-adv-x="188" 
d="M-18 -200l-10 61c22 6 49 14 65 38c17 26 23 62 23 154v431h77v-453c0 -102 -15 -149 -49 -185c-29 -30 -76 -45 -106 -46zM99 659c27 0 45 -20 45 -50s-18 -50 -47 -50c-25 0 -45 20 -44 50c-1 30 19 50 46 50z" />
    <glyph glyph-name="k" unicode="k" horiz-adv-x="354" 
d="M130 692v-433h2c9 19 17 38 26 54l96 171h83l-128 -204l139 -280h-86l-105 228l-27 -45v-183h-77v692h77z" />
    <glyph glyph-name="l" unicode="l" horiz-adv-x="191" 
d="M54 0v692h77v-692h-77z" />
    <glyph glyph-name="m" unicode="m" horiz-adv-x="620" 
d="M54 0v359c0 57 -3 86 -4 125h67l4 -60h2c21 39 58 68 109 68c45 0 83 -22 101 -74h2c13 24 30 43 48 55c19 13 42 19 67 19c65 0 116 -48 116 -171v-321h-76v303c0 63 -9 124 -68 124c-32 0 -60 -27 -71 -72c-2 -13 -3 -28 -3 -44v-311h-76v317c0 54 -10 110 -67 110
c-31 0 -63 -27 -72 -78c-2 -13 -3 -27 -3 -42v-307h-76z" />
    <glyph glyph-name="n" unicode="n" horiz-adv-x="405" 
d="M54 0v359c0 57 -3 86 -4 125h67l4 -58h2c21 39 60 66 111 66c67 0 117 -50 117 -167v-325h-77v312c0 57 -11 115 -67 115c-32 0 -63 -27 -73 -79c-2 -12 -3 -27 -3 -43v-305h-77z" />
    <glyph glyph-name="o" unicode="o" horiz-adv-x="383" 
d="M195 492c86 0 156 -81 156 -250c0 -187 -87 -250 -161 -250c-87 0 -157 79 -157 249c0 177 79 251 162 251zM192 430c-69 0 -82 -114 -82 -188c0 -80 14 -189 84 -189c66 0 79 114 79 189c0 74 -13 188 -81 188z" />
    <glyph glyph-name="p" unicode="p" horiz-adv-x="399" 
d="M53 -192v525c0 74 -3 117 -4 151h69l4 -62h2c26 52 64 70 102 70c84 0 140 -90 140 -249c0 -179 -74 -251 -150 -251c-45 0 -71 29 -84 56h-2v-240h-77zM130 301v-123c0 -15 0 -29 3 -40c15 -69 50 -82 71 -82c64 0 84 88 84 186c0 100 -24 184 -85 184
c-35 0 -66 -44 -71 -88c-2 -12 -2 -24 -2 -37z" />
    <glyph glyph-name="q" unicode="q" horiz-adv-x="399" 
d="M269 -192v242h-3c-16 -33 -49 -58 -93 -58c-78 0 -140 85 -140 244c0 171 72 256 152 256c31 0 67 -14 90 -64l2 -1l4 57h69c-2 -34 -4 -77 -4 -151v-525h-77zM269 178v125c0 10 0 23 -2 32c-6 51 -36 91 -70 91c-63 0 -87 -84 -87 -186s26 -184 85 -184
c24 0 54 14 70 81c4 12 4 28 4 41z" />
    <glyph glyph-name="r" unicode="r" horiz-adv-x="248" 
d="M53 0v359c0 41 -3 89 -4 125h69l4 -76h2c16 46 57 84 102 84c6 0 11 -1 16 -1v-79c-5 1 -10 1 -16 1c-49 0 -85 -45 -93 -101c-2 -13 -3 -28 -3 -44v-268h-77z" />
    <glyph glyph-name="s" unicode="s" horiz-adv-x="289" 
d="M22 22l19 58c17 -11 47 -25 78 -25c44 0 71 27 71 70c0 37 -13 62 -62 95c-63 41 -97 82 -97 138c0 78 58 134 133 134c38 0 67 -13 87 -25l-21 -58c-18 12 -39 21 -64 21c-42 0 -63 -30 -63 -61c0 -33 12 -51 60 -84c56 -36 100 -80 100 -147c0 -97 -66 -144 -145 -144
c-36 0 -75 11 -96 28z" />
    <glyph glyph-name="t" unicode="t" horiz-adv-x="255" 
d="M71 566l77 31v-113h93v-59h-93v-287c0 -63 23 -80 51 -80c12 0 22 1 31 3l3 -59c-14 -5 -32 -8 -57 -8c-30 0 -57 8 -76 29c-19 22 -29 55 -29 122v280h-59v59h59v82z" />
    <glyph glyph-name="u" unicode="u" horiz-adv-x="398" 
d="M344 484v-352c0 -54 3 -96 4 -132h-67l-5 51h-2c-15 -24 -52 -59 -104 -59c-85 0 -118 66 -118 186v306h77v-295c0 -76 12 -132 65 -132c45 0 65 42 69 64c3 13 4 28 4 44v319h77z" />
    <glyph glyph-name="v" unicode="v" horiz-adv-x="347" 
d="M13 484h80l61 -272c7 -33 15 -76 21 -118h3c5 40 13 81 20 118l60 272h76l-126 -484h-69z" />
    <glyph glyph-name="w" unicode="w" horiz-adv-x="566" 
d="M13 484h80l47 -237c9 -52 20 -104 26 -154h4c7 50 19 106 30 152l56 239h59l53 -232c12 -54 23 -105 31 -159h4c6 51 15 101 26 156l46 235h77l-122 -484h-63l-56 235c-12 47 -19 90 -27 145h-2c-8 -57 -17 -102 -28 -148l-58 -232h-65z" />
    <glyph glyph-name="x" unicode="x" horiz-adv-x="340" 
d="M14 484h83l45 -104c12 -28 21 -56 32 -85h2c11 31 22 59 32 85l44 104h79l-115 -239l114 -245h-84l-46 109c-11 26 -20 51 -32 83h-2c-10 -29 -21 -55 -32 -83l-45 -109h-78l115 243z" />
    <glyph glyph-name="y" unicode="y" horiz-adv-x="346" 
d="M13 484h81l64 -278c9 -38 14 -70 20 -100h2c5 27 13 64 21 99l57 279h76l-79 -311c-30 -122 -63 -239 -120 -312c-34 -43 -70 -66 -87 -74l-28 66c22 12 46 33 68 61c20 25 36 58 44 81c4 12 5 17 5 24c0 6 0 12 -2 18z" />
    <glyph glyph-name="z" unicode="z" horiz-adv-x="313" 
d="M16 0v47l153 299c13 25 28 50 39 72v2h-173v64h258v-51l-151 -295c-13 -25 -28 -50 -39 -72v-2h190v-64h-277z" />
    <glyph glyph-name="braceleft" unicode="{" horiz-adv-x="253" 
d="M29 262v50c55 0 68 38 68 71c0 29 -3 58 -6 86c-3 29 -6 58 -6 89c0 90 55 128 126 128h12v-52h-15c-42 -5 -59 -30 -59 -75c0 -27 3 -53 6 -78c2 -25 5 -49 5 -74c1 -78 -26 -106 -69 -118v-2c43 -13 70 -40 69 -119c0 -25 -3 -50 -5 -75c-3 -25 -6 -50 -6 -77
c0 -45 15 -71 60 -76h14v-52h-13c-66 0 -125 33 -125 128c0 30 3 60 6 89s6 58 6 86c0 32 -13 71 -68 71z" />
    <glyph glyph-name="bar" unicode="|" horiz-adv-x="201" 
d="M69 750h63v-1000h-63v1000z" />
    <glyph glyph-name="braceright" unicode="}" horiz-adv-x="253" 
d="M224 312v-50c-55 0 -68 -39 -68 -71c0 -28 3 -57 6 -86s6 -59 6 -89c0 -95 -59 -128 -125 -128h-13v52h14c45 5 60 31 60 76c0 27 -3 52 -5 77c-3 25 -6 50 -6 75c-1 79 26 106 69 119v2c-43 12 -70 40 -69 118c0 25 3 49 6 74c2 25 5 51 5 78c0 45 -17 70 -59 75h-15v52
h12c71 0 126 -38 126 -128c0 -31 -3 -60 -6 -89c-3 -28 -6 -57 -6 -86c0 -33 13 -71 68 -71z" />
    <glyph glyph-name="asciitilde" unicode="~" horiz-adv-x="596" 
d="M127 221h-54c-3 87 44 134 110 134c36 0 79 -16 129 -42c51 -27 84 -40 111 -40c35 0 48 34 47 78h54c5 -90 -37 -135 -103 -135c-37 0 -70 9 -129 40c-47 25 -84 43 -115 43c-32 0 -51 -25 -50 -78z" />
    <glyph glyph-name="exclamdown" unicode="&#xa1;" horiz-adv-x="204" 
d="M145 -189h-85l10 486h64zM102 496h1c29 0 48 -22 48 -55c0 -32 -18 -54 -49 -54c-28 0 -49 22 -49 54c0 33 21 55 49 55z" />
    <glyph glyph-name="cent" unicode="&#xa2;" horiz-adv-x="385" 
d="M253 -6h-55v97c-31 6 -61 22 -86 51c-30 36 -50 96 -50 186c0 116 51 210 137 229v94h55v-89c24 -1 50 -7 67 -18l-14 -61c-20 11 -43 18 -69 18c-75 0 -99 -99 -99 -179c0 -106 38 -172 104 -172c30 0 50 6 72 17l10 -58c-18 -11 -43 -18 -72 -20v-95z" />
    <glyph glyph-name="sterling" unicode="&#xa3;" horiz-adv-x="385" 
d="M353 0h-322v49c44 18 95 99 95 174c0 32 -2 57 -6 82h-82v55h74c-6 27 -14 73 -14 116c0 115 71 182 155 182c37 0 63 -10 78 -20l-17 -62c-12 8 -33 17 -61 17c-57 0 -80 -53 -80 -106s6 -87 13 -127h105v-55h-97c5 -43 5 -88 -4 -126c-9 -35 -28 -77 -63 -111v-2h226
v-66z" />
    <glyph glyph-name="fraction" unicode="&#x2044;" horiz-adv-x="109" 
d="M-91 -8h-49l340 666h49z" />
    <glyph glyph-name="yen" unicode="&#xa5;" horiz-adv-x="385" 
d="M224 0h-71v187h-125v46h125v74h-125v46h106l-119 297h77l67 -191c13 -38 26 -75 34 -102h2c8 29 18 63 33 103l70 190h73l-128 -297h109v-46h-128v-74h128v-46h-128v-187z" />
    <glyph glyph-name="florin" unicode="&#x192;" horiz-adv-x="385" 
d="M78 346v60h81l7 54c12 99 48 198 157 198c20 0 40 -4 55 -12l-12 -57c-14 5 -28 7 -43 7c-54 0 -74 -59 -82 -127l-9 -63h91v-60h-96l-28 -230c-15 -117 -47 -196 -148 -196c-26 1 -49 7 -63 17l15 56c12 -6 31 -11 45 -11c43 0 67 39 81 151l25 213h-76z" />
    <glyph glyph-name="section" unicode="&#xa7;" horiz-adv-x="401" 
d="M92 354v-1c0 -34 26 -62 80 -87c33 -16 72 -35 98 -56c26 16 40 48 40 79c0 40 -29 70 -69 90c-33 15 -73 32 -104 54c-31 -21 -45 -48 -45 -79zM327 656l-18 -52c-22 15 -51 24 -87 24c-42 0 -90 -20 -90 -73c0 -54 46 -73 99 -96c73 -31 138 -68 138 -158
c0 -52 -21 -88 -59 -121c13 -13 33 -44 33 -85c0 -98 -75 -145 -162 -145c-51 0 -100 14 -126 34l19 54c20 -14 59 -34 109 -34c49 0 94 24 94 79c0 46 -29 71 -105 107c-81 38 -141 75 -141 155c0 39 18 79 69 118c-18 16 -34 45 -35 81c0 89 77 138 161 138
c41 0 77 -10 101 -26z" />
    <glyph glyph-name="currency" unicode="&#xa4;" horiz-adv-x="385" 
d="M193 529h1c33 0 71 -16 94 -41l61 72l40 -40l-73 -73c17 -35 24 -78 24 -118c0 -41 -7 -84 -24 -117l72 -75l-39 -40l-63 73c-24 -26 -63 -42 -95 -42c-33 0 -71 16 -93 41l-61 -72l-40 40l71 72c-17 34 -25 77 -25 118c0 42 9 85 27 120l-74 72l41 42l62 -74
c23 26 61 42 94 42zM193 470h-1c-51 0 -81 -54 -81 -143c0 -83 33 -140 81 -140c51 -2 80 56 80 141c0 81 -28 142 -79 142z" />
    <glyph glyph-name="quotesingle" unicode="'" horiz-adv-x="170" 
d="M50 683h71l-14 -233h-43z" />
    <glyph glyph-name="quotedblleft" unicode="&#x201c;" horiz-adv-x="307" 
d="M98 457l-78 -10c22 80 64 185 91 230l45 6c-21 -57 -48 -158 -58 -226zM231 457l-78 -10c22 80 64 185 90 230l46 6c-21 -57 -48 -158 -58 -226z" />
    <glyph glyph-name="guillemotleft" unicode="&#xab;" horiz-adv-x="354" 
d="M190 426l-104 -174l104 -174h-63l-102 174l103 174h62zM333 426l-104 -174l104 -174h-63l-103 174l104 174h62z" />
    <glyph glyph-name="guilsinglleft" unicode="&#x2039;" horiz-adv-x="210" 
d="M190 426l-104 -174l104 -174h-63l-102 174l103 174h62z" />
    <glyph glyph-name="guilsinglright" unicode="&#x203a;" horiz-adv-x="210" 
d="M124 252l-104 174h62l104 -174l-102 -174h-64z" />
    <glyph glyph-name="fi" unicode="&#xe016;" horiz-adv-x="418" 
d="M147 0h-77v425h-61v59h61v32c0 86 42 184 176 184c41 0 77 -12 95 -23l-17 -60c-17 8 -46 19 -80 19c-78 0 -97 -54 -97 -128v-24h217v-484h-77v425h-140v-425z" />
    <glyph glyph-name="fl" unicode="&#xe017;" horiz-adv-x="418" 
d="M147 0h-77v425h-61v59h61v26c0 51 15 110 55 148c28 26 65 42 123 42c42 0 89 -11 117 -25v-675h-77v627c-14 6 -33 10 -53 10c-67 0 -88 -58 -88 -122v-31h83v-59h-83v-425z" />
    <glyph glyph-name="endash" unicode="&#x2013;" horiz-adv-x="500" 
d="M30 288h440v-56h-440v56z" />
    <glyph glyph-name="dagger" unicode="&#x2020;" horiz-adv-x="380" 
d="M155 674h70l-6 -198l131 6v-68l-131 7l6 -471h-70l6 471l-130 -7v68l130 -6z" />
    <glyph glyph-name="daggerdbl" unicode="&#x2021;" horiz-adv-x="380" 
d="M155 674h70l-4 -195l129 6v-67l-129 6v-216l129 7v-68l-129 6l4 -203h-70l5 203l-129 -6v68l129 -7v216l-129 -6v67l129 -6z" />
    <glyph glyph-name="periodcentered" unicode="&#xb7;" horiz-adv-x="194" 
d="M97 202h-1c-27 0 -50 22 -50 57c0 33 24 57 51 57c30 0 51 -22 51 -57s-20 -57 -51 -57z" />
    <glyph glyph-name="paragraph" unicode="&#xb6;" horiz-adv-x="401" 
d="M233 -50h-50v324h-6c-51 0 -139 53 -147 179c-6 114 62 221 223 221c33 0 59 -2 89 -6v-718h-50v674h-59v-674z" />
    <glyph glyph-name="bullet" unicode="&#x2022;" horiz-adv-x="257" 
d="M128 162h-1c-52 0 -94 40 -94 96c-1 56 42 97 96 97c53 0 95 -40 95 -97c0 -55 -41 -96 -96 -96z" />
    <glyph glyph-name="quotesinglbase" unicode="&#x201a;" horiz-adv-x="177" 
d="M66 -113l-46 -7c21 58 48 158 58 227l78 10c-21 -81 -64 -185 -90 -230z" />
    <glyph glyph-name="quotedblbase" unicode="&#x201e;" horiz-adv-x="307" 
d="M64 -113l-45 -7c20 58 47 158 57 227l79 10c-22 -81 -65 -185 -91 -230zM197 -113l-46 -7c21 58 48 158 58 227l78 10c-21 -81 -64 -185 -90 -230z" />
    <glyph glyph-name="quotedblright" unicode="&#x201d;" horiz-adv-x="307" 
d="M76 674l79 10c-22 -81 -65 -185 -91 -230l-45 -7c20 58 47 158 57 227zM209 674l78 10c-21 -81 -64 -185 -90 -230l-46 -7c21 58 48 158 58 227z" />
    <glyph glyph-name="guillemotright" unicode="&#xbb;" horiz-adv-x="354" 
d="M125 252l-104 174h62l103 -174l-101 -174h-64zM268 252l-104 174h62l103 -174l-102 -174h-63z" />
    <glyph glyph-name="ellipsis" unicode="&#x2026;" horiz-adv-x="1000" 
d="M167 -8h-1c-28 0 -50 23 -50 58c0 34 22 59 51 59c30 0 51 -24 51 -59s-20 -58 -51 -58zM500 -8h-1c-28 0 -50 23 -50 58c0 34 23 59 51 59c31 0 51 -24 51 -59s-19 -58 -51 -58zM833 -8h-1c-28 0 -49 23 -49 58c0 34 22 59 51 59c30 0 50 -24 50 -59s-19 -58 -51 -58z
" />
    <glyph glyph-name="perthousand" unicode="&#x2030;" horiz-adv-x="934" 
d="M153 658h1c73 0 121 -77 121 -196c0 -137 -60 -198 -122 -198c-71 0 -123 75 -123 196c0 125 54 198 123 198zM153 610h-1c-49 0 -63 -83 -63 -149c0 -68 13 -149 64 -149s63 82 63 148c0 65 -11 150 -63 150zM173 -14h-49l346 677h48zM493 387h1c73 0 121 -78 121 -197
c0 -136 -60 -197 -122 -197c-72 0 -123 74 -123 196c0 124 54 198 123 198zM493 339h-1c-50 0 -63 -83 -63 -149c0 -68 13 -150 64 -150s63 82 63 149c0 65 -12 150 -63 150zM782 387h1c73 0 121 -78 121 -197c0 -136 -60 -197 -122 -197c-71 0 -122 74 -122 196
c0 124 53 198 122 198zM782 339h-1c-49 0 -63 -83 -63 -149c0 -68 13 -150 64 -150s63 82 63 149c0 65 -11 150 -63 150z" />
    <glyph glyph-name="questiondown" unicode="&#xbf;" horiz-adv-x="309" 
d="M175 496h1c29 0 49 -22 49 -56c0 -32 -19 -56 -49 -56c-31 0 -51 24 -51 56c0 34 20 56 50 56zM136 302h69l2 -15c9 -59 -2 -123 -42 -190c-34 -57 -59 -94 -59 -149c0 -57 33 -81 77 -81c25 0 50 8 66 19l17 -60c-16 -11 -56 -26 -100 -26c-100 0 -139 67 -139 138
c0 73 42 129 75 184c31 54 43 96 35 163z" />
    <glyph glyph-name="grave" unicode="`" 
d="M39 682h79l77 -135h-51z" />
    <glyph glyph-name="acute" unicode="&#xb4;" 
d="M188 682h79l-105 -135h-51z" />
    <glyph glyph-name="circumflex" unicode="&#x2c6;" 
d="M124 682h52l79 -135h-57l-47 86h-2l-46 -86h-58z" />
    <glyph glyph-name="tilde" unicode="&#x2dc;" 
d="M84 561h-42c-1 53 20 94 61 94c21 0 35 -9 49 -17c15 -9 26 -17 40 -17c15 0 23 7 25 36h41c0 -55 -20 -90 -63 -90c-18 0 -35 9 -49 17s-25 17 -37 17c-15 0 -23 -14 -25 -40z" />
    <glyph glyph-name="macron" unicode="&#xaf;" 
d="M52 631h197v-50h-197v50z" />
    <glyph glyph-name="breve" unicode="&#x2d8;" 
d="M44 669h43c3 -37 28 -62 62 -62c39 0 63 26 64 62h43c2 -66 -40 -113 -107 -113c-68 0 -107 50 -105 113z" />
    <glyph glyph-name="dotaccent" unicode="&#x2d9;" 
d="M151 566h-1c-24 0 -43 19 -43 44c0 26 20 45 44 45s43 -18 43 -45c0 -25 -18 -44 -43 -44z" />
    <glyph glyph-name="dieresis" unicode="&#xa8;" 
d="M73 566h-1c-24 0 -44 19 -44 44c0 26 20 45 45 45c24 0 42 -18 42 -45c0 -25 -18 -44 -42 -44zM228 566h-1c-24 0 -43 19 -43 44c0 26 20 45 44 45s43 -18 43 -45c0 -25 -18 -44 -43 -44z" />
    <glyph glyph-name="ring" unicode="&#x2da;" 
d="M117 533c-57 0 -93 38 -93 85c0 49 34 89 94 89c55 0 91 -39 91 -88s-39 -86 -92 -86zM116 568c31 0 48 24 48 52c0 27 -16 52 -49 52c-29 0 -45 -27 -45 -54c0 -24 17 -50 46 -50z" />
    <glyph glyph-name="cedilla" unicode="&#xb8;" 
d="M144 5h48l-28 -55c33 -5 65 -33 65 -71c0 -57 -47 -79 -91 -79c-25 0 -49 8 -67 18l16 42c16 -10 31 -15 50 -15s36 7 36 30c0 27 -30 40 -69 44z" />
    <glyph glyph-name="hungarumlaut" unicode="&#x2dd;" 
d="M112 682h70l-104 -135h-44zM236 682h70l-104 -135h-44z" />
    <glyph glyph-name="ogonek" unicode="&#x2db;" 
d="M123 5h54c-16 -24 -44 -69 -44 -102c0 -31 21 -46 41 -46c17 0 31 3 43 9l11 -43c-21 -16 -49 -22 -72 -22c-51 0 -84 31 -84 81c0 52 33 100 51 123z" />
    <glyph glyph-name="caron" unicode="&#x2c7;" 
d="M177 547h-53l-79 135h58l46 -87h2l47 87h58z" />
    <glyph glyph-name="emdash" unicode="&#x2014;" horiz-adv-x="1000" 
d="M30 288h940v-56h-940v56z" />
    <glyph glyph-name="AE" unicode="&#xc6;" horiz-adv-x="556" 
d="M83 0h-75l203 674h304v-67h-186l13 -226h171v-65h-165l14 -249h179l-1 -67h-247l-13 222h-134zM162 284h112l-9 205c-2 43 -4 90 -6 131h-5c-12 -45 -27 -100 -39 -144z" />
    <glyph glyph-name="ordfeminine" unicode="&#xaa;" horiz-adv-x="273" 
d="M243 263h-48l-5 35h-2c-16 -26 -43 -40 -76 -40c-45 0 -85 35 -85 92c0 81 73 117 158 117v11c0 36 -18 63 -60 63c-24 0 -46 -8 -64 -21l-13 41c22 16 52 27 87 27c70 0 104 -45 104 -120v-131c0 -24 1 -52 4 -74zM186 356v69c-28 0 -104 -5 -104 -68
c0 -36 25 -53 47 -53c19 0 37 10 49 30c4 6 8 14 8 22z" />
    <glyph glyph-name="Lslash" unicode="&#x141;" horiz-adv-x="351" 
d="M334 0h-267v256l-68 -65v70l68 65v348h77v-286l106 102v-71l-106 -101v-253h190v-65z" />
    <glyph glyph-name="Oslash" unicode="&#xd8;" horiz-adv-x="446" 
d="M86 -37l-43 23l42 95c-35 59 -53 146 -53 257c0 224 80 344 192 344c35 0 70 -11 101 -41l30 70l46 -20l-40 -91c36 -61 53 -151 53 -257c0 -252 -87 -351 -191 -351c-35 0 -73 12 -103 45zM129 172l164 398c-17 26 -42 44 -70 44c-85 0 -115 -140 -115 -276
c0 -50 2 -110 19 -166h2zM317 507l-168 -397c19 -35 45 -50 74 -50c87 0 114 142 114 279c0 51 -2 110 -18 168h-2z" />
    <glyph glyph-name="OE" unicode="&#x152;" horiz-adv-x="610" 
d="M585 67v-67h-246c-13 -1 -26 -3 -38 -5c-13 -2 -26 -3 -37 -3c-176 0 -232 163 -232 341c0 237 106 349 240 349c14 0 27 -1 38 -3c13 -2 25 -4 36 -5h227v-67h-180v-222h169v-65h-169v-253h192zM316 68v535c-12 7 -29 11 -54 11c-67 0 -151 -69 -150 -276
c-1 -213 76 -278 155 -278c18 0 38 2 49 8z" />
    <glyph glyph-name="ordmasculine" unicode="&#xba;" horiz-adv-x="302" 
d="M153 588h1c71 0 113 -55 113 -164c0 -122 -60 -166 -117 -166c-65 0 -116 54 -116 165s56 165 119 165zM150 543h-1c-43 0 -57 -72 -57 -120c0 -54 15 -120 58 -120c50 0 59 69 59 120s-10 120 -59 120z" />
    <glyph glyph-name="ae" unicode="&#xe6;" horiz-adv-x="561" 
d="M531 241h-224c0 -149 50 -188 113 -188c34 0 61 9 82 21l13 -55c-34 -22 -75 -27 -111 -27c-57 0 -114 32 -133 93h-2c-21 -57 -65 -93 -124 -93c-68 0 -119 55 -119 140c0 117 96 170 207 170v27c0 58 -24 102 -81 102c-29 0 -58 -11 -78 -25l-17 53c25 17 68 33 111 33
c50 0 97 -26 111 -87h2c22 55 67 87 118 87c94 0 133 -106 133 -214c0 -12 -1 -24 -1 -37zM234 154v95c-41 0 -136 -9 -136 -112c0 -60 32 -84 63 -84c32 0 62 26 70 73c3 9 3 19 3 28zM308 296h150c3 93 -33 137 -69 137c-52 0 -79 -70 -81 -137z" />
    <glyph glyph-name="dotlessi" unicode="&#x131;" horiz-adv-x="184" 
d="M131 0h-77v484h77v-484z" />
    <glyph glyph-name="lslash" unicode="&#x142;" horiz-adv-x="198" 
d="M138 0h-77v296l-62 -63v68l62 64v327h77v-267l63 66v-70l-63 -66v-355z" />
    <glyph glyph-name="oslash" unicode="&#xf8;" horiz-adv-x="383" 
d="M192 492h1c28 0 56 -10 81 -30l25 53l42 -22l-34 -68c28 -41 44 -101 44 -183c0 -187 -88 -250 -159 -250c-29 0 -57 9 -81 28l-26 -53l-39 25l31 64c-27 40 -44 102 -44 185c0 177 79 251 159 251zM122 131l121 267c-8 20 -25 32 -51 32c-74 0 -85 -119 -85 -188
c0 -30 2 -70 13 -110zM263 348l-120 -264c9 -19 26 -31 49 -31c71 0 85 110 85 184c0 31 -2 69 -12 110z" />
    <glyph glyph-name="oe" unicode="&#x153;" horiz-adv-x="609" 
d="M580 237h-225c2 -147 51 -184 112 -184c33 0 59 10 84 20l14 -55c-34 -21 -77 -26 -113 -26c-56 0 -112 33 -134 102h-2c-21 -72 -74 -102 -125 -102c-88 0 -158 81 -158 249c0 173 79 251 163 251c52 0 104 -31 123 -99h2c24 61 69 99 126 99c94 0 134 -107 134 -214
c0 -17 -1 -31 -1 -41zM197 430h-1c-74 0 -86 -117 -86 -188c0 -79 14 -189 88 -189c72 0 85 108 85 190c0 78 -13 187 -86 187zM356 292h151c2 95 -34 139 -69 139c-51 0 -79 -70 -82 -139z" />
    <glyph glyph-name="germandbls" unicode="&#xdf;" horiz-adv-x="430" 
d="M131 0h-77v450c0 104 22 167 63 206c30 28 70 44 117 44c75 0 147 -49 147 -156c0 -31 -12 -64 -24 -82c-40 -16 -66 -45 -66 -81c0 -35 19 -58 45 -89c42 -48 67 -90 67 -150c0 -97 -74 -150 -156 -150c-34 0 -63 7 -79 15l13 60c17 -9 41 -13 65 -13c52 0 83 36 83 80
c0 45 -24 76 -52 109c-31 36 -59 70 -59 126c0 54 33 98 80 120c8 17 9 35 9 48c0 80 -49 99 -81 99c-54 0 -95 -44 -95 -191v-445z" />
    <glyph glyph-name="onesuperior" unicode="&#xe018;" horiz-adv-x="212" 
d="M157 417h-60v333h-2l-73 -39l-11 48l95 48h51v-390z" />
    <glyph glyph-name="logicalnot" unicode="&#xac;" horiz-adv-x="596" 
d="M40 398h516v-278h-56v223h-460v55z" />
    <glyph glyph-name="mu" unicode="&#xb5;" horiz-adv-x="399" 
d="M281 50h-2c-11 -21 -44 -53 -84 -53c-28 0 -52 7 -68 36v-71c0 -61 3 -121 9 -154h-70c-8 24 -13 73 -13 146v530h77v-319c0 -58 13 -109 64 -109c47 0 66 42 71 65c3 12 4 28 4 44v319h76v-380c0 -35 7 -55 31 -54l-8 -55c-7 -2 -15 -3 -25 -3c-29 0 -53 15 -62 58z" />
    <glyph glyph-name="trademark" unicode="&#x2122;" horiz-adv-x="509" 
d="M25 674h178v-43h-65v-229h-48v229h-65v43zM488 402h-47l-8 160c0 21 -1 47 -2 76h-2c-5 -27 -11 -58 -17 -81l-36 -151h-49l-36 155c-3 21 -10 53 -15 77h-2c0 -25 -1 -51 -2 -76l-8 -160h-45l16 272h72l33 -129c5 -23 9 -40 14 -69h1c5 25 10 49 14 68l34 130h69z" />
    <glyph glyph-name="Eth" unicode="&#xd0;" horiz-adv-x="453" 
d="M0 323v57h69v284c29 9 65 13 103 13c71 0 121 -18 158 -51c53 -45 91 -132 91 -275c0 -154 -37 -238 -81 -285c-43 -49 -108 -72 -185 -72c-32 0 -64 2 -86 7v322h-69zM247 380v-57h-102v-263c12 -2 23 -2 30 -2c84 0 167 62 167 293c0 170 -52 263 -161 263
c-13 0 -25 -2 -36 -4v-230h102z" />
    <glyph glyph-name="onehalf" unicode="&#xbd;" horiz-adv-x="613" 
d="M161 263h-60v333h-2l-73 -39l-11 48l95 48h51v-390zM132 -8h-49l340 666h49zM355 0v29l41 50c50 62 111 135 111 199c0 45 -25 65 -60 65c-28 0 -51 -15 -66 -27l-16 44c17 17 53 35 98 35c76 0 108 -50 108 -107c0 -72 -57 -144 -103 -197l-30 -37v-2h140v-52h-223z" />
    <glyph glyph-name="plusminus" unicode="&#xb1;" horiz-adv-x="596" 
d="M270 567h56v-194h230v-55h-230v-201h-56v201h-230v55h230v194zM40 55h516v-55h-516v55z" />
    <glyph glyph-name="Thorn" unicode="&#xde;" horiz-adv-x="396" 
d="M60 0v674h76v-133c13 2 30 3 51 3c56 0 101 -16 134 -48c34 -34 49 -81 49 -134c0 -137 -93 -201 -196 -201c-12 0 -27 1 -38 3v-164h-76zM136 477v-248c9 -3 22 -4 35 -4c75 0 122 48 122 132c0 68 -27 124 -116 124c-16 0 -30 -1 -41 -4z" />
    <glyph glyph-name="onequarter" unicode="&#xbc;" horiz-adv-x="613" 
d="M177 263h-60v333h-2l-74 -39l-10 48l94 48h52v-390zM156 -8h-49l340 666h49zM537 0h-57v106h-147v36l144 251h60v-240h46v-47h-46v-106zM480 153v100c0 31 3 56 4 73h-2c-13 -26 -20 -43 -34 -69l-55 -102v-2h87z" />
    <glyph glyph-name="divide" unicode="&#xf7;" horiz-adv-x="596" 
d="M298 397h-1c-26 0 -43 19 -43 46s17 47 44 47c28 0 45 -20 45 -47s-16 -46 -45 -46zM556 240h-516v54h516v-54zM298 44h-1c-26 0 -43 19 -43 46s17 47 44 47c28 0 45 -20 45 -47s-16 -46 -45 -46z" />
    <glyph glyph-name="brokenbar" unicode="&#xa6;" horiz-adv-x="201" 
d="M69 174h63v-350h-63v350zM69 674h63v-350h-63v350z" />
    <glyph glyph-name="degree" unicode="&#xb0;" horiz-adv-x="280" 
d="M151 685h1c69 0 121 -58 121 -128c0 -77 -60 -129 -123 -129c-69 0 -122 55 -122 127c0 73 57 130 123 130zM151 644h-1c-42 0 -75 -40 -75 -89c0 -48 33 -87 76 -87c42 0 75 38 75 88c0 47 -30 88 -75 88z" />
    <glyph glyph-name="thorn" unicode="&#xfe;" horiz-adv-x="399" 
d="M53 665h76v-241h2c24 50 60 68 100 68c78 0 135 -90 135 -249c0 -178 -76 -251 -145 -251c-50 0 -76 29 -89 57h-2v-241h-77v857zM130 301v-124c0 -15 1 -29 4 -40c15 -68 50 -81 70 -81c64 0 84 88 84 186c0 100 -24 184 -84 184c-35 0 -66 -43 -71 -88
c-3 -12 -3 -24 -3 -37z" />
    <glyph glyph-name="threequarters" unicode="&#xbe;" horiz-adv-x="613" 
d="M57 589l-13 43c19 13 51 26 88 26c66 0 101 -41 101 -91c0 -39 -24 -72 -64 -89v-2c37 -8 76 -43 76 -98c0 -68 -51 -120 -135 -120c-32 0 -62 9 -82 21l13 47c13 -8 38 -20 70 -20c40 0 71 25 71 70c0 50 -33 76 -88 76h-8v42h7c29 1 79 20 79 64c0 34 -21 52 -52 52
c-28 0 -47 -10 -63 -21zM173 -8h-49l340 666h49zM539 0h-56v106h-147v36l144 251h59v-240h47v-47h-47v-106zM483 153v100c0 31 2 56 4 73h-2c-13 -26 -21 -43 -35 -69l-55 -102v-2h88z" />
    <glyph glyph-name="twosuperior" unicode="&#xe019;" horiz-adv-x="245" 
d="M2 417v29l41 50c50 62 111 135 111 199c0 45 -25 65 -60 65c-28 0 -51 -15 -66 -27l-16 44c17 17 53 35 98 35c76 0 108 -50 108 -107c0 -72 -58 -144 -103 -197l-30 -37v-2h140v-52h-223z" />
    <glyph glyph-name="registered" unicode="&#xae;" horiz-adv-x="372" 
d="M161 508v-62h-33v156c13 2 31 5 56 5c28 0 41 -5 52 -13c9 -6 16 -18 16 -33c0 -18 -15 -31 -33 -36v-2c16 -5 23 -18 28 -39c5 -23 8 -32 11 -38h-35c-5 6 -8 19 -12 38c-3 17 -13 24 -33 24h-17zM162 579v-45h17c20 0 36 7 36 23c0 14 -10 23 -33 23
c-10 0 -16 -1 -20 -1zM186 683h1c87 0 156 -69 156 -156s-69 -157 -157 -157c-87 0 -157 70 -157 157s70 156 157 156zM186 651h-1c-67 0 -118 -55 -118 -124s51 -124 119 -124c68 -1 118 55 118 124s-50 124 -118 124z" />
    <glyph glyph-name="minus" unicode="&#x2212;" horiz-adv-x="596" 
d="M40 294h516v-54h-516v54z" />
    <glyph glyph-name="eth" unicode="&#xf0;" horiz-adv-x="381" 
d="M191 53h1c66 0 79 111 79 184c0 53 -1 106 -15 145c-8 27 -27 49 -64 49c-70 0 -82 -120 -82 -188c0 -80 14 -190 81 -190zM79 508l-20 33l84 48c-20 24 -46 48 -71 73l45 41c29 -26 59 -54 84 -82l91 52l20 -35l-84 -47c36 -43 62 -87 80 -126c26 -56 40 -125 40 -217
c1 -191 -86 -256 -160 -256c-87 0 -155 81 -155 249c0 165 72 240 143 245c19 1 37 -2 54 -15l2 3c-15 32 -37 61 -59 86z" />
    <glyph glyph-name="multiply" unicode="&#xd7;" horiz-adv-x="596" 
d="M40 486l37 40l220 -225l222 225l37 -40l-220 -224l219 -221l-38 -41l-219 224l-220 -224l-38 41l219 222z" />
    <glyph glyph-name="threesuperior" unicode="&#xe020;" horiz-adv-x="235" 
d="M30 743l-13 43c19 13 51 26 88 26c66 0 101 -41 101 -91c0 -39 -24 -72 -64 -89v-2c37 -8 76 -43 76 -98c0 -68 -51 -120 -136 -120c-31 0 -61 9 -81 21l13 47c13 -8 38 -20 70 -20c40 0 71 25 71 70c0 50 -33 76 -88 76h-8v42h7c29 0 79 20 79 64c0 34 -21 52 -52 52
c-28 0 -47 -10 -63 -21z" />
    <glyph glyph-name="copyright" unicode="&#xa9;" horiz-adv-x="677" 
d="M340 648h1c170 0 303 -138 303 -308c0 -172 -133 -310 -304 -310c-172 0 -307 138 -307 310c0 170 135 308 307 308zM340 607h-1c-145 0 -256 -118 -256 -270c0 -149 111 -266 257 -266c143 -1 254 117 254 269c0 149 -111 267 -254 267zM474 495l-12 -40
c-14 7 -49 22 -97 22c-92 0 -140 -60 -140 -140c0 -79 49 -141 140 -141c40 0 77 11 100 23l12 -37c-35 -21 -78 -29 -122 -29c-114 0 -182 81 -182 181c0 114 87 186 193 186c50 0 94 -15 108 -25z" />
    <glyph glyph-name="Aacute" unicode="&#xc1;" horiz-adv-x="435" 
d="M290 202h-149l-45 -202h-74l154 674h85l150 -674h-76zM152 264h128l-35 171c-10 48 -19 104 -27 154h-4c-8 -51 -18 -109 -27 -154zM263 818h91l-124 -108h-61z" />
    <glyph glyph-name="Acircumflex" unicode="&#xc2;" horiz-adv-x="435" 
d="M290 202h-149l-45 -202h-74l154 674h85l150 -674h-76zM152 264h128l-35 171c-10 48 -19 104 -27 154h-4c-8 -51 -18 -109 -27 -154zM185 808h67l87 -98h-68l-52 55h-2l-51 -55h-67z" />
    <glyph glyph-name="Adieresis" unicode="&#xc4;" horiz-adv-x="435" 
d="M290 202h-149l-45 -202h-74l154 674h85l150 -674h-76zM152 264h128l-35 171c-10 48 -19 104 -27 154h-4c-8 -51 -18 -109 -27 -154zM140 718h-1c-24 0 -42 18 -42 46c0 27 19 47 43 47c26 0 43 -20 43 -47c0 -28 -17 -46 -43 -46zM302 718h-1c-24 0 -43 18 -43 46
c0 27 19 47 44 47c26 0 43 -20 43 -47c0 -28 -17 -46 -43 -46z" />
    <glyph glyph-name="Agrave" unicode="&#xc0;" horiz-adv-x="435" 
d="M290 202h-149l-45 -202h-74l154 674h85l150 -674h-76zM152 264h128l-35 171c-10 48 -19 104 -27 154h-4c-8 -51 -18 -109 -27 -154zM86 818h91l95 -108h-61z" />
    <glyph glyph-name="Aring" unicode="&#xc5;" horiz-adv-x="435" 
d="M290 202h-149l-45 -202h-74l154 674h85l150 -674h-76zM152 264h128l-35 171c-10 48 -19 104 -27 154h-4c-8 -51 -18 -109 -27 -154zM221 871h1c58 0 92 -40 92 -88c0 -47 -37 -87 -93 -87c-59 0 -94 40 -94 86c0 47 36 89 94 89zM220 835h-1c-29 0 -44 -26 -44 -53
c0 -23 17 -49 45 -49c29 0 46 24 46 51s-17 51 -46 51z" />
    <glyph glyph-name="Atilde" unicode="&#xc3;" horiz-adv-x="435" 
d="M290 202h-149l-45 -202h-74l154 674h85l150 -674h-76zM152 264h128l-35 171c-10 48 -19 104 -27 154h-4c-8 -51 -18 -109 -27 -154zM156 718h-42c0 56 22 94 60 94c19 0 34 -9 47 -17c15 -9 26 -18 39 -18c17 0 24 9 27 36h40c1 -56 -17 -90 -62 -90c-19 0 -36 9 -49 17
c-13 9 -24 17 -36 17c-15 0 -22 -13 -24 -39z" />
    <glyph glyph-name="Ccedilla" unicode="&#xc7;" horiz-adv-x="396" 
d="M342 77l12 -65c-18 -10 -49 -17 -82 -17l-22 -44c33 -5 65 -33 65 -72c0 -56 -47 -78 -91 -78c-25 0 -49 7 -67 18l16 41c16 -9 31 -14 50 -14c18 0 36 7 36 30c0 27 -32 40 -69 44l36 77c-114 16 -194 118 -194 332c0 266 132 351 238 351c41 0 70 -8 84 -17l-17 -65
c-16 7 -33 14 -68 14c-72 0 -156 -70 -156 -276s76 -274 158 -274c28 0 55 7 71 15z" />
    <glyph glyph-name="Eacute" unicode="&#xc9;" horiz-adv-x="354" 
d="M306 385v-65h-169v-253h192v-67h-269v674h257v-67h-180v-222h169zM246 818h91l-124 -108h-61z" />
    <glyph glyph-name="Ecircumflex" unicode="&#xca;" horiz-adv-x="354" 
d="M306 385v-65h-169v-253h192v-67h-269v674h257v-67h-180v-222h169zM155 808h67l87 -98h-68l-52 55h-2l-51 -55h-67z" />
    <glyph glyph-name="Edieresis" unicode="&#xcb;" horiz-adv-x="354" 
d="M306 385v-65h-169v-253h192v-67h-269v674h257v-67h-180v-222h169zM109 725h-1c-24 0 -42 18 -42 46c0 27 19 47 43 47c26 0 43 -20 43 -47c0 -28 -17 -46 -43 -46zM271 725h-1c-24 0 -43 18 -43 46c0 27 19 47 44 47c26 0 43 -20 43 -47c0 -28 -17 -46 -43 -46z" />
    <glyph glyph-name="Egrave" unicode="&#xc8;" horiz-adv-x="354" 
d="M306 385v-65h-169v-253h192v-67h-269v674h257v-67h-180v-222h169zM56 818h91l95 -108h-61z" />
    <glyph glyph-name="Iacute" unicode="&#xcd;" horiz-adv-x="199" 
d="M60 674h77v-674h-77v674zM141 818h91l-124 -108h-61z" />
    <glyph glyph-name="Icircumflex" unicode="&#xce;" horiz-adv-x="199" 
d="M60 674h77v-674h-77v674zM66 808h67l87 -98h-68l-52 55h-2l-51 -55h-67z" />
    <glyph glyph-name="Idieresis" unicode="&#xcf;" horiz-adv-x="199" 
d="M60 674h77v-674h-77v674zM19 725h-1c-24 0 -42 18 -42 46c0 27 19 47 43 47c26 0 43 -20 43 -47c0 -28 -17 -46 -43 -46zM181 725h-1c-24 0 -43 18 -43 46c0 27 19 47 44 47c26 0 43 -20 43 -47c0 -28 -17 -46 -43 -46z" />
    <glyph glyph-name="Igrave" unicode="&#xcc;" horiz-adv-x="199" 
d="M60 674h77v-674h-77v674zM-41 818h91l95 -108h-61z" />
    <glyph glyph-name="Ntilde" unicode="&#xd1;" horiz-adv-x="465" 
d="M130 0h-70v674h73l124 -316c28 -72 63 -162 86 -235h2c-6 106 -9 193 -9 310v241h69v-674h-73l-128 324c-27 68 -56 145 -80 229h-2c6 -90 8 -176 8 -320v-233zM171 718h-42c0 56 22 94 60 94c19 0 34 -9 47 -17c15 -9 26 -18 39 -18c17 0 24 9 27 36h40
c1 -56 -17 -90 -62 -90c-19 0 -36 9 -49 17c-13 9 -24 17 -36 17c-15 0 -22 -13 -24 -39z" />
    <glyph glyph-name="Oacute" unicode="&#xd3;" horiz-adv-x="446" 
d="M230 682c115 0 184 -125 184 -340c0 -253 -87 -350 -195 -350c-112 0 -187 119 -187 346c0 223 80 344 198 344zM223 614c-84 0 -111 -140 -111 -277c0 -139 27 -277 112 -277c87 0 110 147 110 279c0 126 -23 275 -111 275zM269 818h91l-124 -108h-61z" />
    <glyph glyph-name="Ocircumflex" unicode="&#xd4;" horiz-adv-x="446" 
d="M230 682c115 0 184 -125 184 -340c0 -253 -87 -350 -195 -350c-112 0 -187 119 -187 346c0 223 80 344 198 344zM223 614c-84 0 -111 -140 -111 -277c0 -139 27 -277 112 -277c87 0 110 147 110 279c0 126 -23 275 -111 275zM190 808h67l87 -98h-68l-52 55h-2l-51 -55
h-67z" />
    <glyph glyph-name="Odieresis" unicode="&#xd6;" horiz-adv-x="446" 
d="M230 682c115 0 184 -125 184 -340c0 -253 -87 -350 -195 -350c-112 0 -187 119 -187 346c0 223 80 344 198 344zM223 614c-84 0 -111 -140 -111 -277c0 -139 27 -277 112 -277c87 0 110 147 110 279c0 126 -23 275 -111 275zM142 725h-1c-24 0 -42 18 -42 46
c0 27 19 47 43 47c26 0 43 -20 43 -47c0 -28 -17 -46 -43 -46zM304 725h-1c-24 0 -43 18 -43 46c0 27 19 47 44 47c26 0 43 -20 43 -47c0 -28 -17 -46 -43 -46z" />
    <glyph glyph-name="Ograve" unicode="&#xd2;" horiz-adv-x="446" 
d="M230 682c115 0 184 -125 184 -340c0 -253 -87 -350 -195 -350c-112 0 -187 119 -187 346c0 223 80 344 198 344zM223 614c-84 0 -111 -140 -111 -277c0 -139 27 -277 112 -277c87 0 110 147 110 279c0 126 -23 275 -111 275zM86 818h91l95 -108h-61z" />
    <glyph glyph-name="Otilde" unicode="&#xd5;" horiz-adv-x="446" 
d="M230 682c115 0 184 -125 184 -340c0 -253 -87 -350 -195 -350c-112 0 -187 119 -187 346c0 223 80 344 198 344zM223 614c-84 0 -111 -140 -111 -277c0 -139 27 -277 112 -277c87 0 110 147 110 279c0 126 -23 275 -111 275zM158 716h-42c0 56 22 94 60 94
c19 0 34 -9 47 -17c15 -9 26 -18 39 -18c17 0 24 9 27 36h40c1 -56 -17 -90 -62 -90c-19 0 -36 9 -49 17c-13 9 -24 17 -36 17c-15 0 -22 -13 -24 -39z" />
    <glyph glyph-name="Scaron" unicode="&#x160;" horiz-adv-x="361" 
d="M28 23l17 66c23 -15 63 -27 97 -27c70 0 112 46 112 114c0 62 -36 100 -89 140c-53 37 -127 100 -127 187c0 102 71 177 178 177c42 0 79 -13 95 -25l-19 -66c-17 12 -45 23 -80 23c-66 0 -97 -50 -97 -96c0 -67 35 -93 99 -139c81 -57 117 -119 117 -194
c0 -116 -82 -189 -189 -189c-46 0 -95 15 -114 29zM229 710h-66l-87 98h67l52 -58h2l52 58h66z" />
    <glyph glyph-name="Uacute" unicode="&#xda;" horiz-adv-x="457" 
d="M59 674h77v-452c0 -121 40 -162 92 -162c57 0 93 44 93 162v452h77v-440c0 -175 -72 -242 -172 -242c-101 0 -167 66 -167 233v449zM277 818h91l-124 -108h-61z" />
    <glyph glyph-name="Ucircumflex" unicode="&#xdb;" horiz-adv-x="457" 
d="M59 674h77v-452c0 -121 40 -162 92 -162c57 0 93 44 93 162v452h77v-440c0 -175 -72 -242 -172 -242c-101 0 -167 66 -167 233v449zM196 808h67l87 -98h-68l-52 55h-2l-51 -55h-67z" />
    <glyph glyph-name="Udieresis" unicode="&#xdc;" horiz-adv-x="457" 
d="M59 674h77v-452c0 -121 40 -162 92 -162c57 0 93 44 93 162v452h77v-440c0 -175 -72 -242 -172 -242c-101 0 -167 66 -167 233v449zM147 725h-1c-24 0 -42 18 -42 46c0 27 19 47 43 47c26 0 43 -20 43 -47c0 -28 -17 -46 -43 -46zM309 725h-1c-24 0 -43 18 -43 46
c0 27 19 47 44 47c26 0 43 -20 43 -47c0 -28 -17 -46 -43 -46z" />
    <glyph glyph-name="Ugrave" unicode="&#xd9;" horiz-adv-x="457" 
d="M59 674h77v-452c0 -121 40 -162 92 -162c57 0 93 44 93 162v452h77v-440c0 -175 -72 -242 -172 -242c-101 0 -167 66 -167 233v449zM86 818h91l95 -108h-61z" />
    <glyph glyph-name="Yacute" unicode="&#xdd;" horiz-adv-x="394" 
d="M235 0h-77v285l-148 389h81l60 -169c17 -47 35 -100 50 -152h2c14 52 31 103 49 155l57 166h81l-155 -386v-288zM252 818h91l-124 -108h-61z" />
    <glyph glyph-name="Ydieresis" unicode="&#x178;" horiz-adv-x="394" 
d="M235 0h-77v285l-148 389h81l60 -169c17 -47 35 -100 50 -152h2c14 52 31 103 49 155l57 166h81l-155 -386v-288zM123 718h-1c-24 0 -42 18 -42 46c0 27 19 47 43 47c26 0 43 -20 43 -47c0 -28 -17 -46 -43 -46zM285 718h-1c-24 0 -43 18 -43 46c0 27 19 47 44 47
c26 0 43 -20 43 -47c0 -28 -17 -46 -43 -46z" />
    <glyph glyph-name="Zcaron" unicode="&#x17d;" horiz-adv-x="358" 
d="M20 0v46l231 559v3h-212v66h298v-52l-227 -553v-3h226v-66h-316zM222 710h-66l-87 98h67l52 -58h2l52 58h66z" />
    <glyph glyph-name="aacute" unicode="&#xe1;" horiz-adv-x="364" 
d="M218 682h79l-105 -135h-51zM310 319v-209c0 -37 0 -79 5 -110h-70l-5 51h-3c-21 -37 -55 -59 -96 -59c-65 0 -115 55 -115 138c0 121 97 175 206 176v15c0 65 -16 110 -77 110c-30 0 -57 -10 -80 -25l-17 54c20 15 65 32 113 32c97 0 139 -64 139 -173zM234 152v98
c-40 0 -133 -7 -133 -112c0 -63 32 -86 59 -86c34 0 63 25 72 73c2 9 2 19 2 27z" />
    <glyph glyph-name="acircumflex" unicode="&#xe2;" horiz-adv-x="364" 
d="M153 682h52l79 -135h-57l-47 86h-2l-46 -86h-58zM310 319v-209c0 -37 0 -79 5 -110h-70l-5 51h-3c-21 -37 -55 -59 -96 -59c-65 0 -115 55 -115 138c0 121 97 175 206 176v15c0 65 -16 110 -77 110c-30 0 -57 -10 -80 -25l-17 54c20 15 65 32 113 32
c97 0 139 -64 139 -173zM234 152v98c-40 0 -133 -7 -133 -112c0 -63 32 -86 59 -86c34 0 63 25 72 73c2 9 2 19 2 27z" />
    <glyph glyph-name="adieresis" unicode="&#xe4;" horiz-adv-x="364" 
d="M105 566h-1c-24 0 -44 19 -44 44c0 26 20 45 45 45c24 0 42 -18 42 -45c0 -25 -18 -44 -42 -44zM260 566h-1c-24 0 -43 19 -43 44c0 26 20 45 44 45s43 -18 43 -45c0 -25 -18 -44 -43 -44zM310 319v-209c0 -37 0 -79 5 -110h-70l-5 51h-3c-21 -37 -55 -59 -96 -59
c-65 0 -115 55 -115 138c0 121 97 175 206 176v15c0 65 -16 110 -77 110c-30 0 -57 -10 -80 -25l-17 54c20 15 65 32 113 32c97 0 139 -64 139 -173zM234 152v98c-40 0 -133 -7 -133 -112c0 -63 32 -86 59 -86c34 0 63 25 72 73c2 9 2 19 2 27z" />
    <glyph glyph-name="agrave" unicode="&#xe0;" horiz-adv-x="364" 
d="M57 682h79l77 -135h-51zM310 319v-209c0 -37 0 -79 5 -110h-70l-5 51h-3c-21 -37 -55 -59 -96 -59c-65 0 -115 55 -115 138c0 121 97 175 206 176v15c0 65 -16 110 -77 110c-30 0 -57 -10 -80 -25l-17 54c20 15 65 32 113 32c97 0 139 -64 139 -173zM234 152v98
c-40 0 -133 -7 -133 -112c0 -63 32 -86 59 -86c34 0 63 25 72 73c2 9 2 19 2 27z" />
    <glyph glyph-name="aring" unicode="&#xe5;" horiz-adv-x="364" 
d="M181 533c-57 0 -93 38 -93 85c0 49 34 89 94 89c55 0 91 -39 91 -88s-39 -86 -92 -86zM180 568c31 0 48 24 48 52c0 27 -16 52 -49 52c-29 0 -45 -27 -45 -54c0 -24 17 -50 46 -50zM310 319v-209c0 -37 0 -79 5 -110h-70l-5 51h-3c-21 -37 -55 -59 -96 -59
c-65 0 -115 55 -115 138c0 121 97 175 206 176v15c0 65 -16 110 -77 110c-30 0 -57 -10 -80 -25l-17 54c20 15 65 32 113 32c97 0 139 -64 139 -173zM234 152v98c-40 0 -133 -7 -133 -112c0 -63 32 -86 59 -86c34 0 63 25 72 73c2 9 2 19 2 27z" />
    <glyph glyph-name="atilde" unicode="&#xe3;" horiz-adv-x="364" 
d="M116 561h-42c-1 53 20 94 61 94c21 0 35 -9 49 -17c15 -9 26 -17 40 -17c15 0 23 7 25 36h41c0 -55 -20 -90 -63 -90c-18 0 -35 9 -49 17s-25 17 -37 17c-15 0 -23 -14 -25 -40zM310 319v-209c0 -37 0 -79 5 -110h-70l-5 51h-3c-21 -37 -55 -59 -96 -59
c-65 0 -115 55 -115 138c0 121 97 175 206 176v15c0 65 -16 110 -77 110c-30 0 -57 -10 -80 -25l-17 54c20 15 65 32 113 32c97 0 139 -64 139 -173zM234 152v98c-40 0 -133 -7 -133 -112c0 -63 32 -86 59 -86c34 0 63 25 72 73c2 9 2 19 2 27z" />
    <glyph glyph-name="ccedilla" unicode="&#xe7;" horiz-adv-x="301" 
d="M280 72l12 -59c-18 -10 -47 -18 -77 -19l-22 -44c33 -5 65 -33 65 -71c0 -57 -47 -79 -91 -79c-25 0 -49 8 -67 18l16 42c16 -10 31 -15 50 -15s36 7 36 31c0 27 -29 39 -68 43l35 80c-83 19 -136 100 -136 240c0 139 70 252 191 252c26 0 54 -7 68 -15l-15 -63
c-10 5 -30 13 -55 13c-77 0 -112 -92 -112 -187c0 -113 43 -181 114 -181c20 0 41 5 56 14z" />
    <glyph glyph-name="eacute" unicode="&#xe9;" horiz-adv-x="363" 
d="M235 682h79l-105 -135h-51zM333 235h-225c1 -148 59 -180 115 -180c33 0 61 8 80 19l12 -57c-27 -15 -68 -23 -106 -23c-116 0 -176 95 -176 243c0 157 66 255 163 255c99 0 138 -104 138 -214c0 -18 0 -31 -1 -43zM109 292h151c2 97 -35 140 -72 140
c-50 0 -76 -74 -79 -140z" />
    <glyph glyph-name="ecircumflex" unicode="&#xea;" horiz-adv-x="363" 
d="M168 682h52l79 -135h-57l-47 86h-2l-46 -86h-58zM333 235h-225c1 -148 59 -180 115 -180c33 0 61 8 80 19l12 -57c-27 -15 -68 -23 -106 -23c-116 0 -176 95 -176 243c0 157 66 255 163 255c99 0 138 -104 138 -214c0 -18 0 -31 -1 -43zM109 292h151
c2 97 -35 140 -72 140c-50 0 -76 -74 -79 -140z" />
    <glyph glyph-name="edieresis" unicode="&#xeb;" horiz-adv-x="363" 
d="M120 566h-1c-24 0 -44 19 -44 44c0 26 20 45 45 45c24 0 42 -18 42 -45c0 -25 -18 -44 -42 -44zM275 566h-1c-24 0 -43 19 -43 44c0 26 20 45 44 45s43 -18 43 -45c0 -25 -18 -44 -43 -44zM333 235h-225c1 -148 59 -180 115 -180c33 0 61 8 80 19l12 -57
c-27 -15 -68 -23 -106 -23c-116 0 -176 95 -176 243c0 157 66 255 163 255c99 0 138 -104 138 -214c0 -18 0 -31 -1 -43zM109 292h151c2 97 -35 140 -72 140c-50 0 -76 -74 -79 -140z" />
    <glyph glyph-name="egrave" unicode="&#xe8;" horiz-adv-x="363" 
d="M74 682h79l77 -135h-51zM333 235h-225c1 -148 59 -180 115 -180c33 0 61 8 80 19l12 -57c-27 -15 -68 -23 -106 -23c-116 0 -176 95 -176 243c0 157 66 255 163 255c99 0 138 -104 138 -214c0 -18 0 -31 -1 -43zM109 292h151c2 97 -35 140 -72 140
c-50 0 -76 -74 -79 -140z" />
    <glyph glyph-name="iacute" unicode="&#xed;" horiz-adv-x="184" 
d="M131 682h79l-105 -135h-51zM131 0h-77v484h77v-484z" />
    <glyph glyph-name="icircumflex" unicode="&#xee;" horiz-adv-x="184" 
d="M67 682h52l79 -135h-57l-47 86h-2l-46 -86h-58zM131 0h-77v484h77v-484z" />
    <glyph glyph-name="idieresis" unicode="&#xef;" horiz-adv-x="184" 
d="M16 566h-1c-24 0 -44 19 -44 44c0 26 20 45 45 45c24 0 42 -18 42 -45c0 -25 -18 -44 -42 -44zM171 566h-1c-24 0 -43 19 -43 44c0 26 20 45 44 45s43 -18 43 -45c0 -25 -18 -44 -43 -44zM131 0h-77v484h77v-484z" />
    <glyph glyph-name="igrave" unicode="&#xec;" horiz-adv-x="184" 
d="M-29 682h79l77 -135h-51zM131 0h-77v484h77v-484z" />
    <glyph glyph-name="ntilde" unicode="&#xf1;" horiz-adv-x="405" 
d="M138 561h-42c-1 53 20 94 61 94c21 0 35 -9 49 -17c15 -9 26 -17 40 -17c15 0 23 7 25 36h41c0 -55 -20 -90 -63 -90c-18 0 -35 9 -49 17s-25 17 -37 17c-15 0 -23 -14 -25 -40zM54 0v359c0 57 -3 86 -4 125h67l4 -58h2c21 39 60 66 111 66c67 0 117 -50 117 -167v-325
h-77v312c0 57 -11 115 -67 115c-32 0 -63 -27 -73 -79c-2 -12 -3 -27 -3 -43v-305h-77z" />
    <glyph glyph-name="oacute" unicode="&#xf3;" horiz-adv-x="383" 
d="M231 682h79l-105 -135h-51zM195 492c86 0 156 -81 156 -250c0 -187 -87 -250 -161 -250c-87 0 -157 79 -157 249c0 177 79 251 162 251zM192 430c-69 0 -82 -114 -82 -188c0 -80 14 -189 84 -189c66 0 79 114 79 189c0 74 -13 188 -81 188z" />
    <glyph glyph-name="ocircumflex" unicode="&#xf4;" horiz-adv-x="383" 
d="M166 682h52l79 -135h-57l-47 86h-2l-46 -86h-58zM195 492c86 0 156 -81 156 -250c0 -187 -87 -250 -161 -250c-87 0 -157 79 -157 249c0 177 79 251 162 251zM192 430c-69 0 -82 -114 -82 -188c0 -80 14 -189 84 -189c66 0 79 114 79 189c0 74 -13 188 -81 188z" />
    <glyph glyph-name="odieresis" unicode="&#xf6;" horiz-adv-x="383" 
d="M115 566h-1c-24 0 -44 19 -44 44c0 26 20 45 45 45c24 0 42 -18 42 -45c0 -25 -18 -44 -42 -44zM270 566h-1c-24 0 -43 19 -43 44c0 26 20 45 44 45s43 -18 43 -45c0 -25 -18 -44 -43 -44zM195 492c86 0 156 -81 156 -250c0 -187 -87 -250 -161 -250
c-87 0 -157 79 -157 249c0 177 79 251 162 251zM192 430c-69 0 -82 -114 -82 -188c0 -80 14 -189 84 -189c66 0 79 114 79 189c0 74 -13 188 -81 188z" />
    <glyph glyph-name="ograve" unicode="&#xf2;" horiz-adv-x="383" 
d="M77 682h79l77 -135h-51zM195 492c86 0 156 -81 156 -250c0 -187 -87 -250 -161 -250c-87 0 -157 79 -157 249c0 177 79 251 162 251zM192 430c-69 0 -82 -114 -82 -188c0 -80 14 -189 84 -189c66 0 79 114 79 189c0 74 -13 188 -81 188z" />
    <glyph glyph-name="otilde" unicode="&#xf5;" horiz-adv-x="383" 
d="M126 561h-42c-1 53 20 94 61 94c21 0 35 -9 49 -17c15 -9 26 -17 40 -17c15 0 23 7 25 36h41c0 -55 -20 -90 -63 -90c-18 0 -35 9 -49 17s-25 17 -37 17c-15 0 -23 -14 -25 -40zM195 492c86 0 156 -81 156 -250c0 -187 -87 -250 -161 -250c-87 0 -157 79 -157 249
c0 177 79 251 162 251zM192 430c-69 0 -82 -114 -82 -188c0 -80 14 -189 84 -189c66 0 79 114 79 189c0 74 -13 188 -81 188z" />
    <glyph glyph-name="scaron" unicode="&#x161;" horiz-adv-x="289" 
d="M174 547h-53l-79 135h58l46 -87h2l47 87h58zM22 22l19 58c17 -11 47 -25 78 -25c44 0 71 27 71 70c0 37 -13 62 -62 95c-63 41 -97 82 -97 138c0 78 58 134 133 134c38 0 67 -13 87 -25l-21 -58c-18 12 -39 21 -64 21c-42 0 -63 -30 -63 -61c0 -33 12 -51 60 -84
c56 -36 100 -80 100 -147c0 -97 -66 -144 -145 -144c-36 0 -75 11 -96 28z" />
    <glyph glyph-name="uacute" unicode="&#xfa;" horiz-adv-x="398" 
d="M245 682h79l-105 -135h-51zM344 484v-352c0 -54 3 -96 4 -132h-67l-5 51h-2c-15 -24 -52 -59 -104 -59c-85 0 -118 66 -118 186v306h77v-295c0 -76 12 -132 65 -132c45 0 65 42 69 64c3 13 4 28 4 44v319h77z" />
    <glyph glyph-name="ucircumflex" unicode="&#xfb;" horiz-adv-x="398" 
d="M173 682h52l79 -135h-57l-47 86h-2l-46 -86h-58zM344 484v-352c0 -54 3 -96 4 -132h-67l-5 51h-2c-15 -24 -52 -59 -104 -59c-85 0 -118 66 -118 186v306h77v-295c0 -76 12 -132 65 -132c45 0 65 42 69 64c3 13 4 28 4 44v319h77z" />
    <glyph glyph-name="udieresis" unicode="&#xfc;" horiz-adv-x="398" 
d="M125 566h-1c-24 0 -44 19 -44 44c0 26 20 45 45 45c24 0 42 -18 42 -45c0 -25 -18 -44 -42 -44zM280 566h-1c-24 0 -43 19 -43 44c0 26 20 45 44 45s43 -18 43 -45c0 -25 -18 -44 -43 -44zM344 484v-352c0 -54 3 -96 4 -132h-67l-5 51h-2c-15 -24 -52 -59 -104 -59
c-85 0 -118 66 -118 186v306h77v-295c0 -76 12 -132 65 -132c45 0 65 42 69 64c3 13 4 28 4 44v319h77z" />
    <glyph glyph-name="ugrave" unicode="&#xf9;" horiz-adv-x="398" 
d="M85 682h79l77 -135h-51zM344 484v-352c0 -54 3 -96 4 -132h-67l-5 51h-2c-15 -24 -52 -59 -104 -59c-85 0 -118 66 -118 186v306h77v-295c0 -76 12 -132 65 -132c45 0 65 42 69 64c3 13 4 28 4 44v319h77z" />
    <glyph glyph-name="yacute" unicode="&#xfd;" horiz-adv-x="346" 
d="M216 682h79l-105 -135h-51zM13 484h81l64 -278c9 -38 14 -70 20 -100h2c5 27 13 64 21 99l57 279h76l-79 -311c-30 -122 -63 -239 -120 -312c-34 -43 -70 -66 -87 -74l-28 66c22 12 46 33 68 61c20 25 36 58 44 81c4 12 5 17 5 24c0 6 0 12 -2 18z" />
    <glyph glyph-name="ydieresis" unicode="&#xff;" horiz-adv-x="346" 
d="M100 566h-1c-24 0 -44 19 -44 44c0 26 20 45 45 45c24 0 42 -18 42 -45c0 -25 -18 -44 -42 -44zM255 566h-1c-24 0 -43 19 -43 44c0 26 20 45 44 45s43 -18 43 -45c0 -25 -18 -44 -43 -44zM13 484h81l64 -278c9 -38 14 -70 20 -100h2c5 27 13 64 21 99l57 279h76
l-79 -311c-30 -122 -63 -239 -120 -312c-34 -43 -70 -66 -87 -74l-28 66c22 12 46 33 68 61c20 25 36 58 44 81c4 12 5 17 5 24c0 6 0 12 -2 18z" />
    <glyph glyph-name="zcaron" unicode="&#x17e;" horiz-adv-x="313" 
d="M192 547h-53l-79 135h58l46 -87h2l47 87h58zM16 0v47l153 299c13 25 28 50 39 72v2h-173v64h258v-51l-151 -295c-13 -25 -28 -50 -39 -72v-2h190v-64h-277z" />
    <glyph glyph-name="Dcroat" unicode="&#x110;" horiz-adv-x="453" 
d="M0 323v57h69v284c29 9 65 13 103 13c71 0 121 -18 158 -51c53 -45 91 -132 91 -275c0 -154 -37 -238 -81 -285c-43 -49 -108 -72 -185 -72c-32 0 -64 2 -86 7v322h-69zM247 380v-57h-102v-263c12 -2 23 -2 30 -2c84 0 167 62 167 293c0 170 -52 263 -161 263
c-13 0 -25 -2 -36 -4v-230h102z" />
    <glyph glyph-name="Eng" unicode="&#x14a;" horiz-adv-x="465" 
d="M130 0h-70v674h73l124 -316c28 -72 63 -162 86 -235h2c-6 106 -9 193 -9 310v241h69v-653c0 -110 -37 -184 -141 -207l-18 59c58 17 89 53 89 121l-131 330c-27 68 -56 145 -80 229h-2c6 -90 8 -176 8 -320v-233z" />
    <glyph glyph-name="Hbar" unicode="&#x126;" horiz-adv-x="463" 
d="M450 483h-47v-483h-77v305h-189v-305h-77v483h-47v55h47v136h77v-136h189v136h77v-136h47v-55zM326 375v108h-189v-108h189z" />
    <glyph glyph-name="Tbar" unicode="&#x166;" horiz-adv-x="354" 
d="M339 605h-123v-225h83v-57h-83v-323h-77v323h-84v57h84v225h-123v69h323v-69z" />
    <glyph glyph-name="uni021C" unicode="&#x21c;" horiz-adv-x="340" 
d="M32 -106l-9 62c106 18 209 96 209 223c0 73 -40 129 -106 129c-21 0 -41 -5 -62 -12l-12 58c69 15 145 84 145 175c0 51 -31 89 -82 89c-32 0 -59 -12 -76 -20l-15 55c23 15 67 29 109 29c87 0 138 -68 138 -142c0 -81 -42 -145 -92 -176v-3c71 -14 131 -76 131 -179
c0 -169 -152 -277 -278 -288z" />
    <glyph glyph-name="dcroat" unicode="&#x111;" horiz-adv-x="399" 
d="M403 543h-58v-427c0 -33 3 -88 4 -116h-66l-5 61h-3c-16 -35 -50 -69 -101 -69c-82 0 -141 89 -141 248c0 172 71 252 146 252c35 0 69 -17 88 -58h2v109h-131v54h131v95h76v-95h58v-54zM269 171v129c0 10 0 21 -1 32c-5 50 -35 94 -72 94c-64 0 -86 -89 -86 -186
c0 -102 26 -184 82 -184c24 0 57 13 74 83c2 9 3 20 3 32z" />
    <glyph glyph-name="eng" unicode="&#x14b;" horiz-adv-x="405" 
d="M54 0v359c0 57 -3 86 -4 125h67l4 -58h2c21 39 60 66 111 66c67 0 117 -50 117 -167v-294c0 -133 -60 -189 -140 -204l-16 62c49 12 79 46 79 138v285c0 57 -11 115 -67 115c-32 0 -63 -27 -73 -79c-2 -12 -3 -27 -3 -43v-305h-77z" />
    <glyph glyph-name="hbar" unicode="&#x127;" horiz-adv-x="405" 
d="M351 0h-77v312c0 59 -13 115 -65 115c-36 0 -63 -26 -75 -77c-2 -11 -3 -25 -3 -37v-313h-77v543h-60v54h60v95h77v-95h133v-54h-133v-111h2c10 17 25 32 40 42c18 11 37 18 65 18c61 0 113 -49 113 -171v-321z" />
    <glyph glyph-name="kgreenlandic" unicode="&#x138;" horiz-adv-x="354" 
d="M130 484v-225h2c9 19 17 38 26 54l96 171h83l-128 -204l139 -280h-86l-105 228l-27 -45v-183h-77v484h77z" />
    <glyph glyph-name="napostrophe" unicode="&#x149;" horiz-adv-x="405" 
d="M54 0v359c0 57 -3 86 -4 125h67l4 -58h2c21 39 60 66 111 66c67 0 117 -50 117 -167v-325h-77v312c0 57 -11 115 -67 115c-32 0 -63 -27 -73 -79c-2 -12 -3 -27 -3 -43v-305h-77zM53 527l-37 20c13 18 29 49 29 81c0 28 -15 49 -32 61l60 11c17 -11 33 -34 33 -65
c0 -53 -37 -91 -53 -108z" />
    <glyph glyph-name="tbar" unicode="&#x167;" horiz-adv-x="255" 
d="M241 425h-93v-116h73v-53h-73v-118c0 -63 23 -80 51 -80c12 0 22 1 31 3l3 -59c-14 -5 -32 -8 -57 -8c-30 0 -57 8 -76 29c-19 22 -29 55 -29 122v111h-54v53h54v116h-59v59h59v82l77 31v-113h93v-59z" />
    <glyph glyph-name="uni021D" unicode="&#x21d;" horiz-adv-x="311" 
d="M19 -200l-6 63c93 9 201 68 201 182c0 54 -32 105 -104 105c-20 0 -37 -3 -57 -8l-10 58c71 17 138 58 138 136c0 57 -32 91 -78 91c-32 0 -55 -12 -73 -21l-16 56c23 15 63 30 105 30c85 0 135 -64 135 -138c0 -73 -38 -123 -88 -150v-2c69 -13 125 -65 125 -152
c0 -150 -145 -241 -272 -250z" />
    <glyph glyph-name="IJ" unicode="&#x132;" horiz-adv-x="464" 
d="M60 674h77v-674h-77v674zM333 189v485h77v-484c0 -151 -61 -198 -158 -198c-19 0 -37 2 -50 7l7 65c10 -3 23 -4 37 -4c55 0 87 22 87 129z" />
    <glyph glyph-name="ij" unicode="&#x133;" horiz-adv-x="373" 
d="M131 0h-77v484h77v-484zM91 659c28 0 46 -20 46 -50c1 -30 -18 -50 -47 -50c-25 0 -44 20 -44 50s20 50 45 50zM166 -200l-10 61c22 6 49 14 65 38c17 26 23 62 23 154v431h77v-453c0 -102 -15 -149 -49 -185c-29 -30 -76 -45 -106 -46zM283 659c27 0 45 -20 45 -50
s-18 -50 -47 -50c-25 0 -45 20 -44 50c-1 30 19 50 46 50z" />
    <glyph glyph-name="zero.slash" unicode="&#xf638;" horiz-adv-x="385" 
d="M117 173l135 370c-13 30 -33 49 -59 49c-63 0 -92 -111 -92 -267c0 -56 5 -109 16 -152zM269 478l-135 -373c14 -29 32 -47 58 -47c64 0 92 111 92 267c0 57 -5 109 -15 153zM348 656l-35 -78c30 -57 45 -145 45 -252c0 -237 -75 -334 -168 -334c-35 0 -66 14 -91 42
l-23 -53l-38 20l34 74c-30 53 -45 141 -45 249c0 223 65 334 171 334c34 0 64 -13 88 -40l25 57z" />
    <glyph glyph-name="Euro" unicode="&#x20ac;" horiz-adv-x="385" 
d="M358 81l13 -61c-19 -12 -58 -28 -100 -28c-50 0 -100 18 -139 65c-34 40 -58 102 -66 196h-49v48h46v14c0 15 0 31 1 43h-47v47h51c10 90 39 149 72 187c38 46 84 66 140 66c38 0 67 -13 85 -24l-17 -63c-13 9 -42 20 -69 20c-32 0 -59 -11 -81 -38
c-25 -27 -45 -74 -53 -148h169v-47h-173c-1 -11 -1 -24 -1 -38v-19h174v-48h-171c5 -70 20 -115 41 -144c25 -38 61 -50 96 -50c30 0 63 13 78 22z" />
    <glyph glyph-name="afii61352" unicode="&#x2116;" horiz-adv-x="705" 
d="M559 654h1c73 0 115 -55 115 -164c0 -122 -59 -166 -119 -166c-69 0 -120 54 -120 165s57 165 123 165zM556 609h-1c-44 0 -58 -71 -58 -120c0 -54 16 -119 59 -119c49 0 59 68 59 119s-11 120 -59 120zM659 235h-207v47h207v-47zM128 0h-68v667h72l116 -314
c27 -72 59 -160 82 -233h1c-5 106 -8 191 -8 306v241h67v-667h-72l-120 321c-25 68 -51 143 -75 227h-2c5 -89 7 -174 7 -316v-232z" />
    <glyph glyph-name="estimated" unicode="&#x212e;" horiz-adv-x="817" 
d="M782 316h-605c-3 0 -5 -1 -5 -4v-183c0 -8 4 -15 9 -21c57 -61 139 -99 229 -99c96 0 182 43 240 111h55c-68 -79 -176 -131 -296 -131c-206 0 -374 150 -374 336s168 336 374 336s373 -150 373 -336v-9zM646 340v184c0 9 -4 16 -10 22c-58 58 -138 95 -226 95
c-90 0 -170 -38 -228 -98c-6 -6 -10 -14 -10 -23v-180c0 -3 2 -5 5 -5h464c3 0 5 2 5 5z" />
    <glyph glyph-name="zero.oldstyle" unicode="&#xf730;" horiz-adv-x="387" 
d="M194 -8h-1c-81 0 -162 71 -162 253c0 181 82 252 163 252c80 0 162 -71 162 -252c0 -182 -82 -253 -162 -253zM194 54h1c65 0 87 93 87 191c0 97 -22 190 -88 190c-67 0 -89 -93 -89 -190c0 -98 23 -191 89 -191z" />
    <glyph glyph-name="one.oldstyle" unicode="&#xf731;" horiz-adv-x="265" 
d="M199 0h-75v414h-2l-94 -51l-16 58l128 67h59v-488z" />
    <glyph glyph-name="two.oldstyle" unicode="&#xf732;" horiz-adv-x="335" 
d="M305 0h-290v45l43 46c74 77 152 163 152 252c0 61 -34 91 -83 91c-33 0 -64 -15 -85 -31l-21 51c27 20 77 44 129 44c75 0 135 -53 135 -144c0 -89 -52 -158 -129 -242l-42 -47v-2c17 1 48 2 72 2h119v-65z" />
    <glyph glyph-name="three.oldstyle" unicode="&#xf733;" horiz-adv-x="328" 
d="M15 -97l9 60c13 -3 36 -6 58 -6c83 0 140 53 140 121c0 64 -47 106 -115 106c-14 0 -29 0 -39 -2l-2 62l16 1c63 7 119 47 119 110c0 49 -30 78 -77 78c-33 0 -62 -11 -80 -19l-14 56c24 15 66 27 108 27c87 0 138 -57 138 -128c0 -72 -48 -121 -101 -139v-3
c69 -11 125 -66 125 -146c0 -116 -102 -187 -211 -187c-29 0 -57 4 -74 9z" />
    <glyph glyph-name="four.oldstyle" unicode="&#xf734;" horiz-adv-x="373" 
d="M358 56h-70v-171h-69v171h-208v52l202 383h75v-373h70v-62zM219 118v172c0 42 1 75 5 117h-4c-16 -43 -30 -77 -51 -118l-87 -169v-2h137z" />
    <glyph glyph-name="five.oldstyle" unicode="&#xf735;" horiz-adv-x="330" 
d="M26 -97l8 60c11 -3 29 -6 53 -6c66 0 136 46 136 128c0 33 -11 64 -35 85c-30 27 -96 42 -149 39l45 279h211l-9 -67h-149l-27 -156c56 -4 112 -22 147 -59c27 -27 43 -66 43 -112c0 -123 -95 -200 -213 -200c-22 0 -49 4 -61 9z" />
    <glyph glyph-name="six.oldstyle" unicode="&#xf736;" horiz-adv-x="385" 
d="M321 605l9 -60c-136 -26 -193 -115 -215 -221h4c21 38 60 61 99 61c67 0 136 -65 136 -187c0 -132 -73 -206 -161 -206c-96 0 -162 86 -162 235c0 201 107 349 290 378zM195 50h1c40 0 81 41 81 141c0 90 -35 136 -79 136c-23 0 -42 -11 -56 -27c-22 -24 -34 -59 -34 -98
c0 -109 44 -152 87 -152z" />
    <glyph glyph-name="seven.oldstyle" unicode="&#xf737;" horiz-adv-x="329" 
d="M308 488v-43c-32 -127 -134 -391 -214 -549l-72 12c75 137 180 401 208 509v4h-204v67h282z" />
    <glyph glyph-name="eight.oldstyle" unicode="&#xf738;" horiz-adv-x="392" 
d="M257 320v-3c49 -27 101 -79 101 -156c0 -105 -73 -169 -164 -169c-105 0 -161 81 -161 159c0 79 51 127 104 163v2c-54 34 -85 80 -85 135c0 97 71 156 152 156c72 0 138 -53 138 -147c0 -59 -32 -104 -85 -140zM202 553h-1c-44 0 -77 -38 -77 -96c0 -52 32 -84 85 -113
c34 25 62 60 62 114c0 69 -39 95 -69 95zM196 49h1c45 0 87 34 87 103c0 71 -45 108 -97 136c-46 -29 -79 -75 -79 -129c0 -62 33 -110 88 -110z" />
    <glyph glyph-name="nine.oldstyle" unicode="&#xf739;" horiz-adv-x="385" 
d="M49 -111l-9 60c130 17 202 95 222 202l-2 1c-16 -29 -51 -49 -93 -49c-68 0 -136 65 -136 190c0 127 71 204 158 204c94 0 160 -93 160 -226c0 -215 -106 -364 -300 -382zM191 158h1c18 0 35 9 48 23c20 21 32 59 32 101c0 94 -35 157 -87 157c-38 0 -78 -37 -78 -138
c0 -106 41 -143 84 -143z" />
    <glyph glyph-name="percent.oldstyle" unicode="&#xf642;" horiz-adv-x="671" 
d="M153 607h1c73 0 121 -78 121 -197c0 -136 -60 -197 -122 -197c-71 0 -123 74 -123 196c0 124 54 198 123 198zM153 559h-1c-49 0 -63 -83 -63 -149c0 -68 13 -150 64 -150s63 82 63 149c0 65 -11 150 -63 150zM199 -14h-49l320 626h49zM519 387h1c73 0 121 -78 121 -197
c0 -136 -60 -197 -122 -197c-72 0 -123 74 -123 196c0 124 54 198 123 198zM519 339h-1c-50 0 -63 -83 -63 -149c0 -68 16 -150 64 -150c51 0 63 82 63 149c0 65 -12 150 -63 150z" />
    <glyph glyph-name="zero.fitted" unicode="&#xf639;" horiz-adv-x="385" 
d="M198 658c105 0 160 -125 160 -332c0 -237 -75 -334 -169 -334c-101 0 -162 120 -162 332c0 219 65 334 171 334zM194 592c-62 0 -90 -111 -90 -267c0 -157 27 -267 91 -267c61 0 86 111 86 267c0 152 -25 267 -87 267z" />
    <glyph glyph-name="one.fitted" unicode="&#xf6dc;" horiz-adv-x="268" 
d="M125 0v572h-2l-108 -62l-15 60l137 80h64v-650h-76z" />
    <glyph glyph-name="two.fitted" unicode="&#xf63a;" horiz-adv-x="336" 
d="M313 0h-313v50l55 75c77 107 169 229 169 351c0 72 -32 116 -93 116c-47 0 -77 -25 -94 -36l-19 58c23 19 68 44 127 44c108 0 155 -80 155 -178c0 -122 -80 -240 -160 -350l-44 -60v-2h217v-68z" />
    <glyph glyph-name="three.fitted" unicode="&#xf63b;" horiz-adv-x="334" 
d="M3 22l17 61c20 -12 55 -27 94 -27c67 0 112 49 112 130c0 85 -53 134 -131 134h-18v58h15c46 1 117 36 117 116c0 65 -35 100 -86 100c-32 0 -60 -16 -81 -31l-17 58c24 19 68 37 117 37c92 0 144 -66 144 -150c0 -65 -34 -122 -97 -152v-2c58 -16 114 -68 114 -170
c0 -106 -68 -192 -186 -192c-42 0 -88 12 -114 30z" />
    <glyph glyph-name="four.fitted" unicode="&#xf63c;" horiz-adv-x="376" 
d="M296 0h-70v179h-216v52l211 419h75v-408h71v-63h-71v-179zM83 242h143v184c0 45 3 85 6 128h-4c-22 -52 -36 -83 -55 -123l-90 -187v-2z" />
    <glyph glyph-name="five.fitted" unicode="&#xf63d;" horiz-adv-x="353" 
d="M316 650v-68h-175l-27 -173c8 2 15 2 24 2c35 0 89 -15 124 -49c34 -34 54 -82 54 -148c0 -129 -81 -222 -197 -222c-39 0 -84 11 -110 28l17 62c20 -12 55 -26 91 -26c66 0 123 51 123 150c0 103 -63 146 -147 146c-24 0 -39 -1 -51 -3l41 301h233z" />
    <glyph glyph-name="six.fitted" unicode="&#xf63e;" horiz-adv-x="385" 
d="M319 658v-65c-13 -1 -27 -3 -46 -7c-108 -26 -151 -134 -167 -234h3c25 37 61 62 110 62c83 0 140 -76 140 -200c0 -123 -56 -222 -160 -222c-113 0 -170 115 -170 264c0 126 33 224 84 293c39 55 101 91 157 103c21 4 38 5 49 6zM199 52h1c43 0 82 43 82 156
c0 98 -34 147 -87 147c-32 0 -65 -22 -84 -70c-3 -7 -6 -20 -6 -39c1 -133 42 -194 94 -194z" />
    <glyph glyph-name="seven.fitted" unicode="&#xf63f;" horiz-adv-x="313" 
d="M0 650h313v-46l-210 -604h-75l206 580v2h-234v68z" />
    <glyph glyph-name="eight.fitted" unicode="&#xf640;" horiz-adv-x="385" 
d="M135 345l-1 2c-54 37 -85 94 -85 149c0 100 71 162 152 162c93 0 139 -78 139 -153c0 -57 -27 -112 -87 -153v-3c60 -40 104 -99 104 -177c0 -101 -67 -180 -167 -180c-108 0 -162 86 -162 167c0 91 54 149 107 186zM193 49c48 0 88 37 88 118c0 75 -43 117 -93 150
c-52 -32 -84 -88 -84 -145c0 -73 33 -123 89 -123zM195 601c-43 0 -72 -41 -72 -100c0 -66 40 -99 80 -125c39 28 65 71 65 120c0 63 -26 105 -73 105z" />
    <glyph glyph-name="nine.fitted" unicode="&#xf641;" horiz-adv-x="385" 
d="M67 -8v66c17 0 31 2 48 6c33 8 65 26 89 51c36 40 65 99 76 185h-3c-24 -31 -58 -55 -105 -55c-81 0 -142 75 -142 193c0 119 64 220 164 220c111 0 163 -117 163 -261c0 -128 -32 -229 -86 -301c-38 -52 -93 -86 -150 -99c-21 -4 -38 -5 -54 -5zM190 598h-1
c-38 0 -83 -42 -83 -153c0 -96 36 -142 88 -142c32 0 64 22 80 58c4 11 6 20 6 42c0 136 -39 195 -90 195z" />
    <glyph glyph-name="zero.slashfitted" unicode="&#xe008;" horiz-adv-x="385" 
d="M117 173l135 370c-13 30 -33 49 -59 49c-63 0 -92 -111 -92 -267c0 -56 5 -109 16 -152zM269 478l-135 -373c14 -29 32 -47 58 -47c64 0 92 111 92 267c0 57 -5 109 -15 153zM348 656l-35 -78c30 -57 45 -145 45 -252c0 -237 -75 -334 -168 -334c-35 0 -66 14 -91 42
l-23 -53l-38 20l34 74c-30 53 -45 141 -45 249c0 223 65 334 171 334c34 0 64 -13 88 -40l25 57z" />
    <glyph glyph-name="zero.taboldstyle" unicode="&#xf643;" horiz-adv-x="387" 
d="M194 -8h-1c-81 0 -162 71 -162 253c0 181 82 252 163 252c80 0 162 -71 162 -252c0 -182 -82 -253 -162 -253zM194 54h1c65 0 87 93 87 191c0 97 -22 190 -88 190c-67 0 -89 -93 -89 -190c0 -98 23 -191 89 -191z" />
    <glyph glyph-name="one.taboldstyle" unicode="&#xf644;" horiz-adv-x="387" 
d="M272 0h-75v418h-2l-144 -60l-12 59l174 71h59v-488z" />
    <glyph glyph-name="two.taboldstyle" unicode="&#xf645;" horiz-adv-x="387" 
d="M334 0h-290v45l43 46c74 77 152 163 152 252c0 61 -34 91 -83 91c-33 0 -64 -15 -85 -31l-21 51c27 20 77 44 129 44c75 0 135 -53 135 -144c0 -89 -52 -158 -129 -242l-42 -47v-2c17 1 48 2 72 2h119v-65z" />
    <glyph glyph-name="three.taboldstyle" unicode="&#xf646;" horiz-adv-x="387" 
d="M44 -97l9 60c13 -3 36 -6 58 -6c83 0 140 53 140 121c0 64 -47 106 -115 106c-14 0 -29 0 -39 -2l-2 62l16 1c63 7 119 47 119 110c0 49 -30 78 -77 78c-33 0 -62 -11 -80 -19l-14 56c24 15 66 27 108 27c87 0 138 -57 138 -128c0 -72 -48 -121 -101 -139v-3
c69 -11 125 -66 125 -146c0 -116 -102 -187 -211 -187c-29 0 -57 4 -74 9z" />
    <glyph glyph-name="four.taboldstyle" unicode="&#xf647;" horiz-adv-x="387" 
d="M366 56h-70v-171h-69v171h-208v52l202 383h75v-373h70v-62zM227 118v172c0 42 1 75 5 117h-4c-16 -43 -30 -77 -51 -118l-87 -169v-2h137z" />
    <glyph glyph-name="five.taboldstyle" unicode="&#xf648;" horiz-adv-x="387" 
d="M52 -97l8 60c11 -3 29 -6 53 -6c66 0 136 46 136 128c0 33 -11 64 -35 85c-30 27 -96 42 -149 39l45 279h211l-9 -67h-149l-27 -156c56 -4 112 -22 147 -59c27 -27 43 -66 43 -112c0 -123 -95 -200 -213 -200c-22 0 -49 4 -61 9z" />
    <glyph glyph-name="six.taboldstyle" unicode="&#xf649;" horiz-adv-x="387" 
d="M323 605l9 -60c-136 -26 -193 -115 -215 -221h4c21 38 60 61 99 61c67 0 136 -65 136 -187c0 -132 -73 -206 -161 -206c-96 0 -162 86 -162 235c0 201 107 349 290 378zM197 50h1c40 0 81 41 81 141c0 90 -35 136 -79 136c-23 0 -42 -11 -56 -27c-22 -24 -34 -59 -34 -98
c0 -109 44 -152 87 -152z" />
    <glyph glyph-name="seven.taboldstyle" unicode="&#xf64a;" horiz-adv-x="387" 
d="M340 488v-43c-32 -127 -134 -391 -214 -549l-72 12c75 137 180 401 208 509v4h-204v67h282z" />
    <glyph glyph-name="eight.taboldstyle" unicode="&#xf64b;" horiz-adv-x="387" 
d="M254 320v-3c49 -27 101 -79 101 -156c0 -105 -73 -169 -164 -169c-105 0 -161 81 -161 159c0 79 51 127 104 163v2c-54 34 -85 80 -85 135c0 97 71 156 152 156c72 0 138 -53 138 -147c0 -59 -32 -104 -85 -140zM199 553h-1c-44 0 -77 -38 -77 -96c0 -52 32 -84 85 -113
c34 25 62 60 62 114c0 69 -39 95 -69 95zM193 49h1c45 0 87 34 87 103c0 71 -45 108 -97 136c-46 -29 -79 -75 -79 -129c0 -62 33 -110 88 -110z" />
    <glyph glyph-name="nine.taboldstyle" unicode="&#xf64c;" horiz-adv-x="387" 
d="M53 -111l-9 60c130 17 202 95 222 202l-2 1c-16 -29 -51 -49 -93 -49c-68 0 -136 65 -136 190c0 127 71 204 158 204c94 0 160 -93 160 -226c0 -215 -106 -364 -300 -382zM195 158h1c18 0 35 9 48 23c20 21 32 59 32 101c0 94 -35 157 -87 157c-38 0 -78 -37 -78 -138
c0 -106 41 -143 84 -143z" />
    <glyph glyph-name="dollar.taboldstyle" unicode="&#xf653;" horiz-adv-x="387" 
d="M214 -68h-53v70c-44 0 -87 16 -113 33l19 56c25 -17 65 -31 102 -31c54 0 91 30 91 76c0 36 -28 65 -88 92c-70 32 -119 68 -119 132c0 61 48 110 113 123v78h53v-73c44 -1 76 -14 96 -27l-21 -55c-18 13 -48 24 -82 24c-52 0 -86 -28 -86 -65c0 -36 29 -58 94 -86
c72 -31 114 -75 114 -138c0 -75 -55 -123 -120 -135v-74z" />
    <glyph glyph-name="cent.taboldstyle" unicode="&#xf654;" horiz-adv-x="387" 
d="M296 129l11 -54c-15 -8 -41 -16 -69 -17v-68h-52v71c-91 16 -132 93 -132 192c0 101 53 177 132 194v68h52v-64c26 -1 50 -6 65 -14l-14 -55c-15 7 -35 12 -62 12c-67 0 -101 -64 -101 -142c0 -87 39 -137 102 -137c25 0 49 5 68 14z" />
    <glyph glyph-name="Euro.taboldstyle" unicode="&#xf64e;" horiz-adv-x="387" 
d="M343 74l13 -61c-17 -10 -50 -21 -88 -21c-45 0 -93 16 -128 51c-32 31 -55 78 -64 138h-43v45h39v21c0 10 0 28 1 36h-40v46h46c9 59 33 106 64 138c38 37 85 54 133 54c31 0 59 -9 77 -17l-14 -62c-15 7 -37 13 -63 13s-54 -9 -77 -31c-20 -20 -37 -52 -43 -95h162v-46
h-167c-1 -7 -2 -22 -2 -31v-26h169v-45h-162c5 -41 21 -72 40 -92c24 -23 54 -32 82 -32c27 0 51 9 65 17z" />
    <glyph glyph-name="florin.taboldstyle" unicode="&#xf64f;" horiz-adv-x="387" 
d="M74 290v60h82l6 59c12 98 49 198 158 198c19 0 40 -4 55 -12l-12 -58c-14 5 -28 7 -43 7c-54 0 -74 -59 -83 -127l-8 -67h91v-60h-96l-26 -211c-14 -118 -46 -197 -147 -196c-26 0 -50 7 -64 17l15 55c12 -6 31 -10 45 -10c43 0 67 38 81 150l22 195h-76z" />
    <glyph glyph-name="sterling.taboldstyle" unicode="&#xf651;" horiz-adv-x="387" 
d="M354 0h-322v48c55 24 90 68 90 118c0 15 -3 34 -6 53h-77v50h66c-6 29 -11 57 -11 81c0 114 71 176 155 176c36 0 62 -11 78 -21l-17 -61c-12 8 -33 16 -61 16c-48 0 -80 -37 -80 -108c0 -23 5 -53 11 -83h112v-50h-103c3 -18 5 -33 5 -44c0 -47 -23 -86 -55 -108v-2h215
v-65z" />
    <glyph glyph-name="yen.taboldstyle" unicode="&#xf652;" horiz-adv-x="387" 
d="M225 0h-71v118h-121v46h121v53h-121v46h102l-120 250h80l65 -153c14 -33 24 -61 33 -86h2c8 25 19 53 34 88l67 151h76l-128 -250h104v-46h-123v-53h123v-46h-123v-118z" />
    <glyph glyph-name="numbersign.taboldstyle" unicode="&#xf650;" horiz-adv-x="387" 
d="M143 218h78l19 153h-78zM114 -12h-52l23 178h-64v52h71l20 153h-70v50h77l22 174h51l-23 -174h78l23 174h50l-23 -174h64v-50h-70l-19 -153h69v-51h-76l-23 -179h-52l23 179h-77z" />
    <glyph glyph-name="zero.superior" unicode="&#x2070;" horiz-adv-x="265" 
d="M131 412h-1c-74 0 -113 80 -113 199c0 124 44 201 119 201c78 0 111 -83 111 -198c0 -138 -48 -202 -116 -202zM133 462h1c35 0 52 57 52 151c0 90 -15 149 -52 149c-36 0 -56 -56 -56 -149c0 -95 18 -151 55 -151z" />
    <glyph glyph-name="one.superior" unicode="&#xb9;" horiz-adv-x="212" 
d="M157 417h-60v333h-2l-73 -39l-11 48l95 48h51v-390z" />
    <glyph glyph-name="two.superior" unicode="&#xb2;" horiz-adv-x="245" 
d="M2 417v29l41 50c50 62 111 135 111 199c0 45 -25 65 -60 65c-28 0 -51 -15 -66 -27l-16 44c17 17 53 35 98 35c76 0 108 -50 108 -107c0 -72 -58 -144 -103 -197l-30 -37v-2h140v-52h-223z" />
    <glyph glyph-name="three.superior" unicode="&#xb3;" horiz-adv-x="235" 
d="M30 743l-13 43c19 13 51 26 88 26c66 0 101 -41 101 -91c0 -39 -24 -72 -64 -89v-2c37 -8 76 -43 76 -98c0 -68 -51 -120 -136 -120c-31 0 -61 9 -81 21l13 47c13 -8 38 -20 70 -20c40 0 71 25 71 70c0 50 -33 76 -88 76h-8v42h7c29 0 79 20 79 64c0 34 -21 52 -52 52
c-28 0 -47 -10 -63 -21z" />
    <glyph glyph-name="four.superior" unicode="&#x2074;" horiz-adv-x="270" 
d="M213 417h-57v106h-147v36l144 251h60v-240h46v-47h-46v-106zM156 570v100c0 31 3 56 4 73h-2c-13 -26 -20 -43 -34 -69l-56 -102v-2h88z" />
    <glyph glyph-name="five.superior" unicode="&#x2075;" horiz-adv-x="246" 
d="M219 807v-53h-117l-13 -89c4 1 12 1 18 1c23 0 56 -8 78 -27c24 -20 39 -51 39 -93c0 -76 -52 -134 -133 -134c-31 0 -62 8 -78 18l12 47c14 -7 38 -15 63 -15c41 0 75 27 75 79c0 55 -37 80 -94 80c-15 0 -26 -1 -36 -2l24 188h162z" />
    <glyph glyph-name="six.superior" unicode="&#x2076;" horiz-adv-x="266" 
d="M218 812v-50c-9 0 -20 0 -32 -3c-67 -13 -97 -69 -106 -126h2c15 22 39 37 71 37c55 0 95 -48 95 -122c0 -73 -39 -136 -111 -136c-76 0 -119 68 -119 162c0 78 24 137 59 177c27 31 67 52 106 58c15 2 27 3 35 3zM136 458h1c30 0 50 31 50 88c0 49 -20 80 -54 80
c-20 0 -40 -14 -51 -38c-2 -5 -4 -14 -4 -27c0 -65 23 -103 58 -103z" />
    <glyph glyph-name="seven.superior" unicode="&#x2077;" horiz-adv-x="228" 
d="M10 807h214v-39l-137 -351h-61l135 336v1h-151v53z" />
    <glyph glyph-name="eight.superior" unicode="&#x2078;" horiz-adv-x="266" 
d="M137 812h1c63 0 99 -45 99 -94c0 -32 -16 -66 -55 -90v-2c38 -21 66 -55 66 -102c0 -67 -50 -112 -116 -112c-73 0 -113 49 -113 103c0 51 30 86 65 107v1c-35 22 -53 56 -53 88c0 62 48 101 106 101zM134 455h1c30 0 53 24 53 65c0 42 -27 66 -59 81
c-31 -15 -51 -45 -51 -78c0 -40 21 -68 56 -68zM135 770h-1c-28 0 -46 -25 -46 -56c0 -35 23 -55 52 -68c23 13 40 38 40 66c0 32 -14 58 -45 58z" />
    <glyph glyph-name="nine.superior" unicode="&#x2079;" horiz-adv-x="262" 
d="M45 412v50c11 0 21 1 34 3c22 4 43 14 59 30c22 20 38 53 45 96h-2c-15 -18 -38 -31 -68 -31c-55 0 -96 46 -96 117s45 135 115 135c74 0 112 -69 112 -160c0 -82 -25 -143 -60 -183c-26 -30 -62 -49 -102 -55c-13 -2 -26 -2 -37 -2zM129 766h-1c-26 0 -51 -29 -51 -85
c0 -48 20 -78 53 -78c21 0 40 13 49 31c3 7 4 13 4 29c0 66 -21 103 -54 103z" />
    <glyph glyph-name="period.superior" unicode="&#xf6e8;" horiz-adv-x="128" 
d="M64 412h-1c-21 0 -37 17 -37 42s18 43 39 43s37 -17 37 -43c0 -25 -14 -42 -38 -42z" />
    <glyph glyph-name="comma.superior" unicode="&#xf6e2;" horiz-adv-x="128" 
d="M46 347l-41 -5c15 42 30 105 37 149l65 6c-16 -51 -41 -117 -61 -150z" />
    <glyph glyph-name="dollar.superior" unicode="&#xf6e4;" horiz-adv-x="248" 
d="M140 366h-41v61c-30 0 -57 9 -74 19l13 48c19 -11 43 -20 69 -20c35 0 55 22 55 52s-16 49 -54 70c-47 25 -80 52 -80 102c0 48 30 83 76 95v60h41v-55c29 -1 50 -9 64 -17l-13 -46c-12 7 -33 16 -59 16c-36 0 -51 -23 -51 -46c0 -29 15 -41 59 -65
c53 -28 75 -61 75 -108c0 -53 -32 -92 -80 -102v-64z" />
    <glyph glyph-name="cent.superior" unicode="&#xf6e0;" horiz-adv-x="243" 
d="M163 412h-42v60c-27 5 -48 16 -66 37c-18 22 -30 57 -30 104c0 71 37 128 97 140v59h41v-56c18 0 36 -5 47 -11l-10 -47c-13 7 -29 11 -48 11c-44 0 -66 -48 -66 -98c0 -58 28 -94 68 -94c22 0 37 4 51 10l7 -45c-11 -6 -28 -11 -49 -12v-58z" />
    <glyph glyph-name="hyphen.superior" unicode="&#xf6e6;" horiz-adv-x="168" 
d="M18 627h132v-45h-132v45z" />
    <glyph glyph-name="parenleft.superior" unicode="&#x207d;" horiz-adv-x="159" 
d="M104 846h46c-36 -55 -65 -135 -65 -245c0 -108 29 -186 65 -243h-46c-33 47 -69 126 -69 243s36 198 69 245z" />
    <glyph glyph-name="parenright.superior" unicode="&#x207e;" horiz-adv-x="159" 
d="M54 358h-46c36 56 65 136 65 245c0 108 -29 187 -65 243h46c33 -46 70 -125 70 -244c0 -116 -37 -197 -70 -244z" />
    <glyph glyph-name="zero.inferior" unicode="&#x2080;" horiz-adv-x="265" 
d="M131 -152h-1c-74 0 -113 80 -113 199c0 124 44 201 119 201c78 0 111 -83 111 -198c0 -138 -48 -202 -116 -202zM133 -102h1c35 0 52 57 52 151c0 90 -15 149 -52 149c-36 0 -56 -56 -56 -149c0 -95 18 -151 55 -151z" />
    <glyph glyph-name="one.inferior" unicode="&#x2081;" horiz-adv-x="212" 
d="M157 -147h-60v333h-2l-73 -39l-11 48l95 48h51v-390z" />
    <glyph glyph-name="two.inferior" unicode="&#x2082;" horiz-adv-x="245" 
d="M2 -147v29l41 50c50 62 111 135 111 199c0 45 -25 65 -60 65c-28 0 -51 -15 -66 -27l-16 44c17 17 53 35 98 35c76 0 108 -50 108 -107c0 -72 -58 -144 -103 -197l-30 -37v-2h140v-52h-223z" />
    <glyph glyph-name="three.inferior" unicode="&#x2083;" horiz-adv-x="235" 
d="M30 179l-13 43c19 13 51 26 88 26c66 0 101 -41 101 -91c0 -39 -24 -72 -64 -89v-2c37 -8 76 -43 76 -98c0 -68 -51 -120 -136 -120c-31 0 -61 9 -81 21l13 47c13 -8 38 -20 70 -20c40 0 71 25 71 70c0 50 -33 76 -88 76h-8v42h7c29 0 79 20 79 64c0 34 -21 52 -52 52
c-28 0 -47 -10 -63 -21z" />
    <glyph glyph-name="four.inferior" unicode="&#x2084;" horiz-adv-x="270" 
d="M213 -147h-57v106h-147v36l144 251h60v-240h46v-47h-46v-106zM156 6v100c0 31 3 56 4 73h-2c-13 -26 -20 -43 -34 -69l-56 -102v-2h88z" />
    <glyph glyph-name="five.inferior" unicode="&#x2085;" horiz-adv-x="246" 
d="M219 243v-53h-117l-13 -89c4 1 12 1 18 1c23 0 56 -8 78 -27c24 -20 39 -51 39 -93c0 -76 -52 -134 -133 -134c-31 0 -62 8 -78 18l12 47c14 -7 38 -15 63 -15c41 0 75 27 75 79c0 55 -37 80 -94 80c-15 0 -26 -1 -36 -2l24 188h162z" />
    <glyph glyph-name="six.inferior" unicode="&#x2086;" horiz-adv-x="266" 
d="M218 248v-50c-9 0 -20 0 -32 -3c-67 -13 -97 -69 -106 -126h2c15 22 39 37 71 37c55 0 95 -48 95 -122c0 -73 -39 -136 -111 -136c-76 0 -119 68 -119 162c0 78 24 137 59 177c27 31 67 52 106 58c15 2 27 3 35 3zM136 -106h1c30 0 50 31 50 88c0 49 -20 80 -54 80
c-20 0 -40 -14 -51 -38c-2 -5 -4 -14 -4 -27c0 -65 23 -103 58 -103z" />
    <glyph glyph-name="seven.inferior" unicode="&#x2087;" horiz-adv-x="228" 
d="M10 243h214v-39l-137 -351h-61l135 336v1h-151v53z" />
    <glyph glyph-name="eight.inferior" unicode="&#x2088;" horiz-adv-x="266" 
d="M137 248h1c63 0 99 -45 99 -94c0 -32 -16 -66 -55 -90v-2c38 -21 66 -55 66 -102c0 -67 -50 -112 -116 -112c-73 0 -113 49 -113 103c0 51 30 86 65 107v1c-35 22 -53 56 -53 88c0 62 48 101 106 101zM134 -109h1c30 0 53 24 53 65c0 42 -27 66 -59 81
c-31 -15 -51 -45 -51 -78c0 -40 21 -68 56 -68zM135 206h-1c-28 0 -46 -25 -46 -56c0 -35 23 -55 52 -68c23 13 40 38 40 66c0 32 -14 58 -45 58z" />
    <glyph glyph-name="nine.inferior" unicode="&#x2089;" horiz-adv-x="262" 
d="M45 -152v50c11 0 21 1 34 3c22 4 43 14 59 30c22 20 38 53 45 96h-2c-15 -18 -38 -31 -68 -31c-55 0 -96 46 -96 117s45 135 115 135c74 0 112 -69 112 -160c0 -82 -25 -143 -60 -183c-26 -30 -62 -49 -102 -55c-13 -2 -26 -2 -37 -2zM129 202h-1c-26 0 -51 -29 -51 -85
c0 -48 20 -78 53 -78c21 0 40 13 49 31c3 7 4 13 4 29c0 66 -21 103 -54 103z" />
    <glyph glyph-name="period.inferior" unicode="&#xf6e7;" horiz-adv-x="128" 
d="M64 -152h-1c-21 0 -37 17 -37 42s18 43 39 43s37 -17 37 -43c0 -25 -14 -42 -38 -42z" />
    <glyph glyph-name="comma.inferior" unicode="&#xf6e1;" horiz-adv-x="128" 
d="M46 -217l-41 -5c15 42 30 105 37 149l65 6c-16 -51 -41 -117 -61 -150z" />
    <glyph glyph-name="dollar.inferior" unicode="&#xf6e3;" horiz-adv-x="248" 
d="M140 -198h-41v61c-30 0 -57 9 -74 19l13 48c19 -11 43 -20 69 -20c35 0 55 22 55 52s-16 49 -54 70c-47 25 -80 52 -80 102c0 48 30 83 76 95v60h41v-55c29 -1 50 -9 64 -17l-13 -46c-12 7 -33 16 -59 16c-36 0 -51 -23 -51 -46c0 -29 15 -41 59 -65
c53 -28 75 -61 75 -108c0 -53 -32 -92 -80 -102v-64z" />
    <glyph glyph-name="cent.inferior" unicode="&#xf6df;" horiz-adv-x="243" 
d="M163 -152h-42v60c-27 5 -48 16 -66 37c-18 22 -30 57 -30 104c0 71 37 128 97 140v59h41v-56c18 0 36 -5 47 -11l-10 -47c-13 7 -29 11 -48 11c-44 0 -66 -48 -66 -98c0 -58 28 -94 68 -94c22 0 37 4 51 10l7 -45c-11 -6 -28 -11 -49 -12v-58z" />
    <glyph glyph-name="hyphen.inferior" unicode="&#xf6e5;" horiz-adv-x="168" 
d="M18 63h132v-45h-132v45z" />
    <glyph glyph-name="parenleft.inferior" unicode="&#x208d;" horiz-adv-x="159" 
d="M104 282h46c-36 -55 -65 -135 -65 -245c0 -108 29 -186 65 -243h-46c-33 47 -69 126 -69 243s36 198 69 245z" />
    <glyph glyph-name="parenright.inferior" unicode="&#x208e;" horiz-adv-x="159" 
d="M54 -206h-46c36 56 65 136 65 245c0 108 -29 187 -65 243h46c33 -46 70 -125 70 -244c0 -116 -37 -197 -70 -244z" />
    <glyph glyph-name="zero.numerator" unicode="&#xf661;" horiz-adv-x="265" 
d="M131 258h-1c-74 0 -113 80 -113 199c0 124 44 201 119 201c78 0 111 -83 111 -198c0 -138 -48 -202 -116 -202zM133 308h1c35 0 52 57 52 151c0 90 -15 149 -52 149c-36 0 -56 -56 -56 -149c0 -95 18 -151 55 -151z" />
    <glyph glyph-name="one.numerator" unicode="&#xf662;" horiz-adv-x="212" 
d="M157 263h-60v333h-2l-73 -39l-11 48l95 48h51v-390z" />
    <glyph glyph-name="two.numerator" unicode="&#xf663;" horiz-adv-x="245" 
d="M2 263v29l41 50c50 62 111 135 111 199c0 45 -25 65 -60 65c-28 0 -51 -15 -66 -27l-16 44c17 17 53 35 98 35c76 0 108 -50 108 -107c0 -72 -58 -144 -103 -197l-30 -37v-2h140v-52h-223z" />
    <glyph glyph-name="three.numerator" unicode="&#xf664;" horiz-adv-x="235" 
d="M30 589l-13 43c19 13 51 26 88 26c66 0 101 -41 101 -91c0 -39 -24 -72 -64 -89v-2c37 -8 76 -43 76 -98c0 -68 -51 -120 -136 -120c-31 0 -61 9 -81 21l13 47c13 -8 38 -20 70 -20c40 0 71 25 71 70c0 50 -33 76 -88 76h-8v42h7c29 0 79 20 79 64c0 34 -21 52 -52 52
c-28 0 -47 -10 -63 -21z" />
    <glyph glyph-name="four.numerator" unicode="&#xf665;" horiz-adv-x="270" 
d="M213 263h-57v106h-147v36l144 251h60v-240h46v-47h-46v-106zM156 416v100c0 31 3 56 4 73h-2c-13 -26 -20 -43 -34 -69l-56 -102v-2h88z" />
    <glyph glyph-name="five.numerator" unicode="&#xf666;" horiz-adv-x="246" 
d="M219 653v-53h-117l-13 -89c4 1 12 1 18 1c23 0 56 -8 78 -27c24 -20 39 -51 39 -93c0 -76 -52 -134 -133 -134c-31 0 -62 8 -78 18l12 47c14 -7 38 -15 63 -15c41 0 75 27 75 79c0 55 -37 80 -94 80c-15 0 -26 -1 -36 -2l24 188h162z" />
    <glyph glyph-name="six.numerator" unicode="&#xf667;" horiz-adv-x="266" 
d="M218 658v-50c-9 0 -20 0 -32 -3c-67 -13 -97 -69 -106 -126h2c15 22 39 37 71 37c55 0 95 -48 95 -122c0 -73 -39 -136 -111 -136c-76 0 -119 68 -119 162c0 78 24 137 59 177c27 31 67 52 106 58c15 2 27 3 35 3zM136 304h1c30 0 50 31 50 88c0 49 -20 80 -54 80
c-20 0 -40 -14 -51 -38c-2 -5 -4 -14 -4 -27c0 -65 23 -103 58 -103z" />
    <glyph glyph-name="seven.numerator" unicode="&#xf668;" horiz-adv-x="228" 
d="M10 653h214v-39l-137 -351h-61l135 336v1h-151v53z" />
    <glyph glyph-name="eight.numerator" unicode="&#xf669;" horiz-adv-x="266" 
d="M137 658h1c63 0 99 -45 99 -94c0 -32 -16 -66 -55 -90v-2c38 -21 66 -55 66 -102c0 -67 -50 -112 -116 -112c-73 0 -113 49 -113 103c0 51 30 86 65 107v1c-35 22 -53 56 -53 88c0 62 48 101 106 101zM134 301h1c30 0 53 24 53 65c0 42 -27 66 -59 81
c-31 -15 -51 -45 -51 -78c0 -40 21 -68 56 -68zM135 616h-1c-28 0 -46 -25 -46 -56c0 -35 23 -55 52 -68c23 13 40 38 40 66c0 32 -14 58 -45 58z" />
    <glyph glyph-name="nine.numerator" unicode="&#xf66a;" horiz-adv-x="262" 
d="M45 258v50c11 0 21 1 34 3c22 4 43 14 59 30c22 20 38 53 45 96h-2c-15 -18 -38 -31 -68 -31c-55 0 -96 46 -96 117s45 135 115 135c74 0 112 -69 112 -160c0 -82 -25 -143 -60 -183c-26 -30 -62 -49 -102 -55c-13 -2 -26 -2 -37 -2zM129 612h-1c-26 0 -51 -29 -51 -85
c0 -48 20 -78 53 -78c21 0 40 13 49 31c3 7 4 13 4 29c0 66 -21 103 -54 103z" />
    <glyph glyph-name="period.numerator" unicode="&#xf66c;" horiz-adv-x="128" 
d="M64 258h-1c-21 0 -37 17 -37 42s18 43 39 43s37 -17 37 -43c0 -25 -14 -42 -38 -42z" />
    <glyph glyph-name="comma.numerator" unicode="&#xf66b;" horiz-adv-x="128" 
d="M46 193l-41 -5c15 42 30 105 37 149l65 6c-16 -51 -41 -117 -61 -150z" />
    <glyph glyph-name="dollar.numerator" unicode="&#xf62f;" horiz-adv-x="248" 
d="M140 212h-41v61c-30 0 -57 9 -74 19l13 48c19 -11 43 -20 69 -20c35 0 55 22 55 52s-16 49 -54 70c-47 25 -80 52 -80 102c0 48 30 83 76 95v60h41v-55c29 -1 50 -9 64 -17l-13 -46c-12 7 -33 16 -59 16c-36 0 -51 -23 -51 -46c0 -29 15 -41 59 -65
c53 -28 75 -61 75 -108c0 -53 -32 -92 -80 -102v-64z" />
    <glyph glyph-name="cent.numerator" unicode="&#xf62e;" horiz-adv-x="243" 
d="M163 258h-42v60c-27 5 -48 16 -66 37c-18 22 -30 57 -30 104c0 71 37 128 97 140v59h41v-56c18 0 36 -5 47 -11l-10 -47c-13 7 -29 11 -48 11c-44 0 -66 -48 -66 -98c0 -58 28 -94 68 -94c22 0 37 4 51 10l7 -45c-11 -6 -28 -11 -49 -12v-58z" />
    <glyph glyph-name="hyphen.numerator" unicode="&#xf630;" horiz-adv-x="168" 
d="M18 473h132v-45h-132v45z" />
    <glyph glyph-name="parenleft.numerator" unicode="&#xf631;" horiz-adv-x="159" 
d="M104 692h46c-36 -55 -65 -135 -65 -245c0 -108 29 -186 65 -243h-46c-33 47 -69 126 -69 243s36 198 69 245z" />
    <glyph glyph-name="parenright.numerator" unicode="&#xf632;" horiz-adv-x="159" 
d="M54 204h-46c36 56 65 136 65 245c0 108 -29 187 -65 243h46c33 -46 70 -125 70 -244c0 -116 -37 -197 -70 -244z" />
    <glyph glyph-name="zero.denominator" unicode="&#xf655;" horiz-adv-x="265" 
d="M131 -5h-1c-74 0 -113 80 -113 199c0 124 44 201 119 201c78 0 111 -83 111 -198c0 -138 -48 -202 -116 -202zM133 45h1c35 0 52 57 52 151c0 90 -15 149 -52 149c-36 0 -56 -56 -56 -149c0 -95 18 -151 55 -151z" />
    <glyph glyph-name="one.denominator" unicode="&#xf656;" horiz-adv-x="212" 
d="M157 0h-60v333h-2l-73 -39l-11 48l95 48h51v-390z" />
    <glyph glyph-name="two.denominator" unicode="&#xf657;" horiz-adv-x="245" 
d="M2 0v29l41 50c50 62 111 135 111 199c0 45 -25 65 -60 65c-28 0 -51 -15 -66 -27l-16 44c17 17 53 35 98 35c76 0 108 -50 108 -107c0 -72 -58 -144 -103 -197l-30 -37v-2h140v-52h-223z" />
    <glyph glyph-name="three.denominator" unicode="&#xf658;" horiz-adv-x="235" 
d="M30 326l-13 43c19 13 51 26 88 26c66 0 101 -41 101 -91c0 -39 -24 -72 -64 -89v-2c37 -8 76 -43 76 -98c0 -68 -51 -120 -136 -120c-31 0 -61 9 -81 21l13 47c13 -8 38 -20 70 -20c40 0 71 25 71 70c0 50 -33 76 -88 76h-8v42h7c29 0 79 20 79 64c0 34 -21 52 -52 52
c-28 0 -47 -10 -63 -21z" />
    <glyph glyph-name="four.denominator" unicode="&#xf659;" horiz-adv-x="270" 
d="M213 0h-57v106h-147v36l144 251h60v-240h46v-47h-46v-106zM156 153v100c0 31 3 56 4 73h-2c-13 -26 -20 -43 -34 -69l-56 -102v-2h88z" />
    <glyph glyph-name="five.denominator" unicode="&#xf65a;" horiz-adv-x="246" 
d="M219 390v-53h-117l-13 -89c4 1 12 1 18 1c23 0 56 -8 78 -27c24 -20 39 -51 39 -93c0 -76 -52 -134 -133 -134c-31 0 -62 8 -78 18l12 47c14 -7 38 -15 63 -15c41 0 75 27 75 79c0 55 -37 80 -94 80c-15 0 -26 -1 -36 -2l24 188h162z" />
    <glyph glyph-name="six.denominator" unicode="&#xf65b;" horiz-adv-x="266" 
d="M218 395v-50c-9 0 -20 0 -32 -3c-67 -13 -97 -69 -106 -126h2c15 22 39 37 71 37c55 0 95 -48 95 -122c0 -73 -39 -136 -111 -136c-76 0 -119 68 -119 162c0 78 24 137 59 177c27 31 67 52 106 58c15 2 27 3 35 3zM136 41h1c30 0 50 31 50 88c0 49 -20 80 -54 80
c-20 0 -40 -14 -51 -38c-2 -5 -4 -14 -4 -27c0 -65 23 -103 58 -103z" />
    <glyph glyph-name="seven.denominator" unicode="&#xf65c;" horiz-adv-x="228" 
d="M10 390h214v-39l-137 -351h-61l135 336v1h-151v53z" />
    <glyph glyph-name="eight.denominator" unicode="&#xf65d;" horiz-adv-x="266" 
d="M137 395h1c63 0 99 -45 99 -94c0 -32 -16 -66 -55 -90v-2c38 -21 66 -55 66 -102c0 -67 -50 -112 -116 -112c-73 0 -113 49 -113 103c0 51 30 86 65 107v1c-35 22 -53 56 -53 88c0 62 48 101 106 101zM134 38h1c30 0 53 24 53 65c0 42 -27 66 -59 81
c-31 -15 -51 -45 -51 -78c0 -40 21 -68 56 -68zM135 353h-1c-28 0 -46 -25 -46 -56c0 -35 23 -55 52 -68c23 13 40 38 40 66c0 32 -14 58 -45 58z" />
    <glyph glyph-name="nine.denominator" unicode="&#xf65e;" horiz-adv-x="262" 
d="M45 -5v50c11 0 21 1 34 3c22 4 43 14 59 30c22 20 38 53 45 96h-2c-15 -18 -38 -31 -68 -31c-55 0 -96 46 -96 117s45 135 115 135c74 0 112 -69 112 -160c0 -82 -25 -143 -60 -183c-26 -30 -62 -49 -102 -55c-13 -2 -26 -2 -37 -2zM129 349h-1c-26 0 -51 -29 -51 -85
c0 -48 20 -78 53 -78c21 0 40 13 49 31c3 7 4 13 4 29c0 66 -21 103 -54 103z" />
    <glyph glyph-name="period.denominator" unicode="&#xf660;" horiz-adv-x="128" 
d="M64 -5h-1c-21 0 -37 17 -37 42s18 43 39 43s37 -17 37 -43c0 -25 -14 -42 -38 -42z" />
    <glyph glyph-name="comma.denominator" unicode="&#xf65f;" horiz-adv-x="128" 
d="M46 -70l-41 -5c15 42 30 105 37 149l65 6c-16 -51 -41 -117 -61 -150z" />
    <glyph glyph-name="dollar.denominator" unicode="&#xf62a;" horiz-adv-x="248" 
d="M140 -51h-41v61c-30 0 -57 9 -74 19l13 48c19 -11 43 -20 69 -20c35 0 55 22 55 52s-16 49 -54 70c-47 25 -80 52 -80 102c0 48 30 83 76 95v60h41v-55c29 -1 50 -9 64 -17l-13 -46c-12 7 -33 16 -59 16c-36 0 -51 -23 -51 -46c0 -29 15 -41 59 -65
c53 -28 75 -61 75 -108c0 -53 -32 -92 -80 -102v-64z" />
    <glyph glyph-name="cent.denominator" unicode="&#xf629;" horiz-adv-x="243" 
d="M163 -5h-42v60c-27 5 -48 16 -66 37c-18 22 -30 57 -30 104c0 71 37 128 97 140v59h41v-56c18 0 36 -5 47 -11l-10 -47c-13 7 -29 11 -48 11c-44 0 -66 -48 -66 -98c0 -58 28 -94 68 -94c22 0 37 4 51 10l7 -45c-11 -6 -28 -11 -49 -12v-58z" />
    <glyph glyph-name="hyphen.denominator" unicode="&#xf62b;" horiz-adv-x="168" 
d="M18 210h132v-45h-132v45z" />
    <glyph glyph-name="parenleft.denominator" unicode="&#xf62c;" horiz-adv-x="159" 
d="M104 429h46c-36 -55 -65 -135 -65 -245c0 -108 29 -186 65 -243h-46c-33 47 -69 126 -69 243s36 198 69 245z" />
    <glyph glyph-name="parenright.denominator" unicode="&#xf62d;" horiz-adv-x="159" 
d="M54 -59h-46c36 56 65 136 65 245c0 108 -29 187 -65 243h46c33 -46 70 -125 70 -244c0 -116 -37 -197 -70 -244z" />
    <glyph glyph-name="at.cap" unicode="&#xf633;" horiz-adv-x="590" 
d="M348 323l29 146c-7 4 -16 5 -28 5c-76 0 -136 -109 -136 -208c0 -45 17 -63 40 -63c41 0 83 62 95 120zM409 61l12 -34c-44 -28 -94 -38 -148 -38c-131 0 -238 92 -238 288c0 221 136 408 316 408c135 0 209 -102 209 -241c0 -189 -65 -289 -154 -289
c-37 0 -62 26 -58 80h-3c-34 -63 -78 -80 -109 -80c-47 0 -81 37 -81 109c0 112 73 254 214 254c25 0 53 -6 70 -14l-40 -202c-14 -72 -5 -105 21 -105c48 0 95 92 95 228c0 137 -54 220 -171 220c-139 0 -264 -151 -264 -369c0 -163 78 -247 206 -247c49 0 86 13 123 32z
" />
    <glyph glyph-name="emdash.cap" unicode="&#xf6bc;" horiz-adv-x="1000" 
d="M30 363h940v-56h-940v56z" />
    <glyph glyph-name="endash.cap" unicode="&#xf6bb;" horiz-adv-x="500" 
d="M30 363h440v-56h-440v56z" />
    <glyph glyph-name="exclamdown.cap" unicode="&#xf6b4;" horiz-adv-x="204" 
d="M145 0h-85l10 486h64zM102 685h1c29 0 48 -22 48 -55c0 -32 -18 -54 -49 -54c-28 0 -49 22 -49 54c0 33 21 55 49 55z" />
    <glyph glyph-name="guillemotleft.cap" unicode="&#xf6b6;" horiz-adv-x="354" 
d="M190 501l-104 -174l104 -174h-63l-102 174l103 174h62zM333 501l-104 -174l104 -174h-63l-103 174l104 174h62z" />
    <glyph glyph-name="guillemotright.cap" unicode="&#xf6b7;" horiz-adv-x="354" 
d="M125 327l-104 174h62l103 -174l-101 -174h-64zM268 327l-104 174h62l103 -174l-102 -174h-63z" />
    <glyph glyph-name="guilsinglleft.cap" unicode="&#xf6b8;" horiz-adv-x="210" 
d="M190 501l-104 -174l104 -174h-63l-102 174l103 174h62z" />
    <glyph glyph-name="guilsinglright.cap" unicode="&#xf6b9;" horiz-adv-x="210" 
d="M124 327l-104 174h62l104 -174l-102 -174h-64z" />
    <glyph glyph-name="hyphen.cap" unicode="&#xf6ba;" horiz-adv-x="279" 
d="M30 366h219v-60h-219v60z" />
    <glyph glyph-name="questiondown.cap" unicode="&#xf6b5;" horiz-adv-x="309" 
d="M175 685h1c29 0 49 -22 49 -56c0 -32 -19 -56 -49 -56c-31 0 -51 24 -51 56c0 34 20 56 50 56zM136 491h69l2 -15c9 -59 -2 -123 -42 -190c-34 -57 -59 -94 -59 -149c0 -57 33 -81 77 -81c25 0 50 8 66 19l17 -60c-16 -11 -56 -26 -100 -26c-100 0 -139 67 -139 138
c0 73 42 129 75 184c31 54 43 96 35 163z" />
    <glyph glyph-name="braceleft.cap" unicode="&#xf6b2;" horiz-adv-x="253" 
d="M29 303v50c55 0 68 38 68 71c0 29 -3 58 -6 86c-3 29 -6 58 -6 89c0 90 55 128 126 128h12v-52h-15c-42 -5 -59 -30 -59 -75c0 -27 3 -53 6 -78c2 -25 5 -49 5 -74c1 -78 -26 -106 -69 -118v-2c43 -13 70 -40 69 -119c0 -25 -3 -50 -5 -75c-3 -25 -6 -50 -6 -77
c0 -45 15 -71 60 -76h14v-52h-13c-66 0 -125 33 -125 128c0 30 3 60 6 89s6 58 6 86c0 32 -13 71 -68 71z" />
    <glyph glyph-name="braceright.cap" unicode="&#xf6b3;" horiz-adv-x="253" 
d="M224 353v-50c-55 0 -68 -39 -68 -71c0 -28 3 -57 6 -86s6 -59 6 -89c0 -95 -59 -128 -125 -128h-13v52h14c45 5 60 31 60 76c0 27 -3 52 -5 77c-3 25 -6 50 -6 75c-1 79 26 106 69 119v2c-43 12 -70 40 -69 118c0 25 3 49 6 74c2 25 5 51 5 78c0 45 -17 70 -59 75h-15v52
h12c71 0 126 -38 126 -128c0 -31 -3 -60 -6 -89c-3 -28 -6 -57 -6 -86c0 -33 13 -71 68 -71z" />
    <glyph glyph-name="bracketleft.cap" unicode="&#xf6b0;" horiz-adv-x="253" 
d="M223 -71h-149v798h149v-53h-87v-692h87v-53z" />
    <glyph glyph-name="bracketright.cap" unicode="&#xf6b1;" horiz-adv-x="253" 
d="M31 727h148v-798h-148v53h86v692h-86v53z" />
    <glyph glyph-name="parenleft.cap" unicode="&#xf6ae;" horiz-adv-x="253" 
d="M168 733h60c-57 -90 -104 -225 -104 -407c0 -179 47 -314 104 -405h-60c-52 76 -110 210 -110 406c2 196 58 331 110 406z" />
    <glyph glyph-name="parenright.cap" unicode="&#xf6af;" horiz-adv-x="253" 
d="M85 -79h-60c57 90 104 227 104 407s-47 315 -104 405h60c52 -74 110 -207 110 -405c-2 -198 -58 -330 -110 -407z" />
    <glyph glyph-name="periodcentered.cap" unicode="&#xf6bd;" horiz-adv-x="194" 
d="M97 277h-1c-27 0 -50 22 -50 57c0 33 24 57 51 57c30 0 51 -22 51 -57s-20 -57 -51 -57z" />
    <glyph glyph-name="lessequal" unicode="&#x2264;" horiz-adv-x="596" 
d="M529 97l-462 195v54l462 195v-61l-388 -160v-2l388 -160v-61zM529 0h-462v53h462v-53z" />
    <glyph glyph-name="greaterequal" unicode="&#x2265;" horiz-adv-x="596" 
d="M529 292l-462 -195v61l388 160v2l-388 160v61l462 -195v-54zM529 0h-462v53h462v-53z" />
    <glyph glyph-name="approxequal" unicode="&#x2248;" horiz-adv-x="596" 
d="M539 411l29 -42c-31 -33 -88 -69 -149 -69s-97 23 -129 36c-30 13 -64 34 -116 34c-45 0 -93 -29 -120 -55l-29 42c31 33 88 68 149 68s97 -22 130 -36c30 -12 63 -34 115 -34c45 0 93 29 120 56zM544 214l29 -42c-31 -33 -88 -69 -149 -69s-97 23 -130 36
c-30 13 -64 34 -116 34c-45 0 -92 -28 -119 -55l-30 42c32 33 89 68 149 68c61 0 97 -22 130 -36c30 -12 64 -34 116 -34c45 0 93 30 120 56z" />
    <glyph glyph-name="notequal" unicode="&#x2260;" horiz-adv-x="596" 
d="M556 143h-309l-79 -124h-59l79 124h-148v55h183l90 142h-273v55h308l79 125h60l-80 -125h149v-55h-184l-90 -142h274v-55z" />
    <glyph glyph-name="infinity" unicode="&#x221e;" horiz-adv-x="725" 
d="M540 119h-1c-74 0 -129 61 -177 107c-48 -48 -102 -107 -184 -107c-83 0 -141 60 -141 144c0 79 63 146 149 146c74 0 129 -61 177 -108c48 49 102 108 185 108c82 0 141 -60 141 -146c0 -77 -63 -144 -149 -144zM540 174h1c52 0 90 41 90 89c0 53 -36 91 -88 91
c-59 0 -107 -52 -143 -90c40 -37 80 -90 140 -90zM182 174h1c58 0 106 51 143 89c-40 37 -81 91 -141 91c-52 0 -90 -41 -90 -91c0 -51 36 -89 87 -89z" />
    <glyph glyph-name="lozenge" unicode="&#x25ca;" horiz-adv-x="474" 
d="M423 325l-158 -341h-57l-158 341l158 341h57zM357 323l-111 249c-3 7 -7 18 -9 28h-2c-3 -10 -7 -21 -10 -28l-109 -245l111 -249c3 -7 8 -18 10 -28h2c3 9 7 21 10 28z" />
    <glyph glyph-name="integral" unicode="&#x222b;" horiz-adv-x="311" 
d="M290 787l-11 -53c-8 2 -19 4 -27 4c-16 0 -30 -7 -41 -23c-20 -25 -26 -73 -26 -158c0 -145 7 -321 7 -471c0 -101 -14 -158 -38 -191c-20 -29 -48 -44 -87 -44c-18 0 -34 4 -43 9l12 54c8 -2 19 -4 27 -4c14 0 29 6 39 20c17 24 27 62 27 155c0 152 -7 331 -7 478
c0 101 12 157 47 195c22 24 52 35 82 35c14 0 29 -3 39 -6z" />
    <glyph glyph-name="partialdiff" unicode="&#x2202;" horiz-adv-x="375" 
d="M70 632l-23 52c31 21 70 44 127 44c101 0 204 -100 204 -342c0 -284 -108 -394 -203 -394c-85 0 -144 69 -144 204c0 150 83 248 174 248c47 0 77 -22 97 -54h1v18c0 177 -68 254 -139 254c-44 0 -74 -15 -94 -30zM181 56h1c60 0 111 117 116 257c-17 44 -47 68 -79 68
c-60 0 -111 -80 -111 -185s36 -140 73 -140z" />
    <glyph glyph-name="product" unicode="&#x220f;" horiz-adv-x="449" 
d="M439 582h-60v-672h-71v672h-170v-672h-71v672h-60v68h432v-68z" />
    <glyph glyph-name="radical" unicode="&#x221a;" horiz-adv-x="530" 
d="M518 825l-198 -918h-55l-129 426l-71 -25l-16 44l128 48l94 -327c9 -32 17 -66 18 -82h1c2 16 7 50 13 81l157 753h58z" />
    <glyph glyph-name="summation" unicode="&#x2211;" horiz-adv-x="381" 
d="M378 -90h-368v51l185 318l-175 320v51h336v-66h-243v-4l161 -297l-175 -302v-4h279v-67z" />
    <glyph glyph-name="Delta" unicode="&#x2206;" horiz-adv-x="412" 
d="M392 0h-373v44l149 612h79l145 -611v-45zM316 66l-76 330c-12 54 -25 119 -33 169h-4c-7 -51 -21 -114 -33 -167l-75 -332h221z" />
    <glyph glyph-name="Omega" unicode="&#x2126;" horiz-adv-x="472" 
d="M340 69v-3h99v-66h-177v52c58 63 90 188 89 307c0 114 -27 255 -115 255c-87 0 -116 -139 -116 -252c0 -112 38 -253 89 -310v-52h-177v66h99v3c-49 69 -91 179 -91 304c0 195 86 309 203 309c116 0 188 -120 188 -304c0 -131 -42 -244 -91 -309z" />
    <glyph glyph-name="pi" unicode="&#x3c0;" horiz-adv-x="400" 
d="M380 420h-47v-303c0 -59 4 -95 10 -117h-72c-8 15 -14 58 -14 116v304h-99c-1 -129 -19 -324 -50 -420h-71c31 103 47 289 47 420c-31 0 -50 -3 -61 -5l-11 47c12 12 49 22 116 22h259z" />
    <glyph glyph-name="afii61289" unicode="&#x2113;" horiz-adv-x="396" 
d="M166 501v-173c54 74 91 157 91 246c0 57 -21 73 -41 73c-26 0 -50 -32 -50 -146zM337 108l35 -36c-26 -45 -79 -82 -143 -82c-97 0 -137 68 -138 188v12c-14 -12 -27 -22 -43 -34l-23 40c24 19 45 38 66 58v243c0 163 56 212 123 212c56 0 103 -43 103 -133
c0 -115 -59 -225 -151 -326v-35c0 -128 33 -158 80 -158c39 0 67 23 91 51z" />
    <glyph glyph-name="Abreve" unicode="&#x102;" horiz-adv-x="435" 
d="M290 202h-149l-45 -202h-74l154 674h85l150 -674h-76zM152 264h128l-35 171c-10 48 -19 104 -27 154h-4c-8 -51 -18 -109 -27 -154zM111 807h45c5 -27 28 -43 61 -43s56 14 62 43h45c0 -57 -40 -96 -106 -96s-107 36 -107 96z" />
    <glyph glyph-name="Amacron" unicode="&#x100;" horiz-adv-x="435" 
d="M290 202h-149l-45 -202h-74l154 674h85l150 -674h-76zM152 264h128l-35 171c-10 48 -19 104 -27 154h-4c-8 -51 -18 -109 -27 -154zM111 788h213v-53h-213v53z" />
    <glyph glyph-name="Aogonek" unicode="&#x104;" horiz-adv-x="435" 
d="M261 674l150 -674h-23c-17 -21 -45 -64 -45 -97c0 -31 22 -46 42 -46c17 0 30 3 42 9l11 -43c-20 -16 -49 -22 -72 -22c-51 0 -84 31 -84 83c0 50 33 97 51 122l-43 196h-149l-45 -202h-74l154 674h85zM152 264h128l-35 171c-10 48 -19 104 -27 154h-4
c-8 -51 -18 -109 -27 -154z" />
    <glyph glyph-name="uni01FA" unicode="&#x1fa;" horiz-adv-x="435" 
d="M222 688c-57 0 -85 34 -85 72c0 39 31 75 86 75s83 -34 83 -74c0 -38 -30 -73 -84 -73zM221 722c26 0 41 17 41 40c0 20 -13 40 -41 40s-40 -21 -40 -41s14 -39 40 -39zM284 935h98l-136 -82h-65zM290 202h-149l-45 -202h-74l154 674h85l150 -674h-76zM152 264h128
l-35 171c-10 48 -19 104 -27 154h-4c-8 -51 -18 -109 -27 -154z" />
    <glyph glyph-name="Cacute" unicode="&#x106;" horiz-adv-x="373" 
d="M342 77l12 -65c-21 -11 -54 -18 -96 -18c-132 0 -226 106 -226 335c0 266 132 351 238 351c41 0 70 -8 84 -17l-17 -65c-16 7 -33 14 -68 14c-72 0 -156 -70 -156 -276s76 -274 158 -274c29 0 55 7 71 15zM289 818h91l-124 -108h-61z" />
    <glyph glyph-name="Ccaron" unicode="&#x10c;" horiz-adv-x="373" 
d="M342 77l12 -65c-21 -11 -54 -18 -96 -18c-132 0 -226 106 -226 335c0 266 132 351 238 351c41 0 70 -8 84 -17l-17 -65c-16 7 -33 14 -68 14c-72 0 -156 -70 -156 -276s76 -274 158 -274c29 0 55 7 71 15zM276 710h-66l-87 98h67l52 -58h2l52 58h66z" />
    <glyph glyph-name="Ccircumflex" unicode="&#x108;" horiz-adv-x="373" 
d="M342 77l12 -65c-21 -11 -54 -18 -96 -18c-132 0 -226 106 -226 335c0 266 132 351 238 351c41 0 70 -8 84 -17l-17 -65c-16 7 -33 14 -68 14c-72 0 -156 -70 -156 -276s76 -274 158 -274c29 0 55 7 71 15zM202 808h67l87 -98h-68l-52 55h-2l-51 -55h-67z" />
    <glyph glyph-name="Cdotaccent" unicode="&#x10a;" horiz-adv-x="373" 
d="M342 77l12 -65c-21 -11 -54 -18 -96 -18c-132 0 -226 106 -226 335c0 266 132 351 238 351c41 0 70 -8 84 -17l-17 -65c-16 7 -33 14 -68 14c-72 0 -156 -70 -156 -276s76 -274 158 -274c29 0 55 7 71 15zM242 720h-1c-24 0 -44 20 -44 45s20 44 45 44s44 -19 44 -44
s-19 -45 -44 -45z" />
    <glyph glyph-name="Dcaron" unicode="&#x10e;" horiz-adv-x="445" 
d="M60 3v661c30 9 65 13 104 13c71 0 121 -18 158 -51c52 -45 91 -132 91 -273c0 -154 -38 -238 -81 -284c-44 -50 -108 -73 -186 -73c-31 0 -63 2 -86 7zM137 610v-547c11 -2 22 -2 29 -2c85 0 167 61 167 290c0 170 -52 263 -160 263c-12 0 -26 -1 -36 -4zM228 710h-66
l-87 98h67l52 -58h2l52 58h66z" />
    <glyph glyph-name="Ebreve" unicode="&#x114;" horiz-adv-x="354" 
d="M306 385v-65h-169v-253h192v-67h-269v674h257v-67h-180v-222h169zM84 809h45c5 -27 28 -43 61 -43s56 14 62 43h45c0 -57 -40 -96 -106 -96s-107 36 -107 96z" />
    <glyph glyph-name="Ecaron" unicode="&#x11a;" horiz-adv-x="354" 
d="M306 385v-65h-169v-253h192v-67h-269v674h257v-67h-180v-222h169zM223 710h-66l-87 98h67l52 -58h2l52 58h66z" />
    <glyph glyph-name="Edotaccent" unicode="&#x116;" horiz-adv-x="354" 
d="M306 385v-65h-169v-253h192v-67h-269v674h257v-67h-180v-222h169zM194 727h-1c-24 0 -44 20 -44 45s20 44 45 44s44 -19 44 -44s-19 -45 -44 -45z" />
    <glyph glyph-name="Emacron" unicode="&#x112;" horiz-adv-x="354" 
d="M306 385v-65h-169v-253h192v-67h-269v674h257v-67h-180v-222h169zM86 788h213v-53h-213v53z" />
    <glyph glyph-name="Eogonek" unicode="&#x118;" horiz-adv-x="354" 
d="M324 -136l11 -43c-22 -16 -51 -22 -76 -22c-49 0 -80 29 -80 77c0 51 42 98 82 124h-201v674h257v-67h-180v-222h169v-65h-169v-253h192v-67c-3 -1 -7 -2 -10 -3c-44 -29 -79 -66 -79 -102c0 -28 21 -40 40 -40c15 0 30 2 44 9z" />
    <glyph glyph-name="Gbreve" unicode="&#x11e;" horiz-adv-x="436" 
d="M392 352v-335c-29 -12 -77 -23 -120 -23c-59 0 -114 16 -159 66c-49 52 -82 145 -81 268c1 262 135 352 254 352c42 0 75 -8 96 -19l-17 -66c-18 9 -42 16 -78 16c-84 0 -175 -67 -175 -276c0 -208 79 -275 160 -275c26 0 41 5 47 8v220h-87v64h160zM146 807h45
c5 -27 28 -43 61 -43s56 14 62 43h45c0 -57 -40 -96 -106 -96s-107 36 -107 96z" />
    <glyph glyph-name="Gcircumflex" unicode="&#x11c;" horiz-adv-x="436" 
d="M392 352v-335c-29 -12 -77 -23 -120 -23c-59 0 -114 16 -159 66c-49 52 -82 145 -81 268c1 262 135 352 254 352c42 0 75 -8 96 -19l-17 -66c-18 9 -42 16 -78 16c-84 0 -175 -67 -175 -276c0 -208 79 -275 160 -275c26 0 41 5 47 8v220h-87v64h160zM221 808h67l87 -98
h-68l-52 55h-2l-51 -55h-67z" />
    <glyph glyph-name="Gcommaaccent" unicode="&#x122;" horiz-adv-x="436" 
d="M392 352v-335c-29 -12 -77 -23 -120 -23c-59 0 -114 16 -159 66c-49 52 -82 145 -81 268c1 262 135 352 254 352c42 0 75 -8 96 -19l-17 -66c-18 9 -42 16 -78 16c-84 0 -175 -67 -175 -276c0 -208 79 -275 160 -275c26 0 41 5 47 8v220h-87v64h160zM206 -214l-17 37
c30 9 64 28 64 63c0 25 -16 47 -33 61l62 11c17 -11 34 -37 34 -70c0 -63 -54 -93 -110 -102z" />
    <glyph glyph-name="Gdotaccent" unicode="&#x120;" horiz-adv-x="436" 
d="M392 352v-335c-29 -12 -77 -23 -120 -23c-59 0 -114 16 -159 66c-49 52 -82 145 -81 268c1 262 135 352 254 352c42 0 75 -8 96 -19l-17 -66c-18 9 -42 16 -78 16c-84 0 -175 -67 -175 -276c0 -208 79 -275 160 -275c26 0 41 5 47 8v220h-87v64h160zM256 720h-1
c-24 0 -44 20 -44 45s20 44 45 44s44 -19 44 -44s-19 -45 -44 -45z" />
    <glyph glyph-name="G_tildecomb" unicode="&#xe000;" horiz-adv-x="436" 
d="M392 352v-335c-29 -12 -77 -23 -120 -23c-59 0 -114 16 -159 66c-49 52 -82 145 -81 268c1 262 135 352 254 352c42 0 75 -8 96 -19l-17 -66c-18 9 -42 16 -78 16c-84 0 -175 -67 -175 -276c0 -208 79 -275 160 -275c26 0 41 5 47 8v220h-87v64h160zM195 718h-42
c0 56 22 94 60 94c19 0 34 -9 47 -17c15 -9 26 -18 39 -18c17 0 24 9 27 36h40c1 -56 -17 -90 -62 -90c-19 0 -36 9 -49 17c-13 9 -24 17 -36 17c-15 0 -22 -13 -24 -39z" />
    <glyph glyph-name="Hcircumflex" unicode="&#x124;" horiz-adv-x="463" 
d="M60 674h77v-289h189v289h77v-674h-77v315h-189v-315h-77v674zM200 808h67l87 -98h-68l-52 55h-2l-51 -55h-67z" />
    <glyph glyph-name="Ibreve" unicode="&#x12c;" horiz-adv-x="199" 
d="M60 674h77v-674h-77v674zM-8 809h45c5 -27 28 -43 61 -43s56 14 62 43h45c0 -57 -40 -96 -106 -96s-107 36 -107 96z" />
    <glyph glyph-name="Idotaccent" unicode="&#x130;" horiz-adv-x="199" 
d="M60 674h77v-674h-77v674zM100 727h-1c-24 0 -44 20 -44 45s20 44 45 44s44 -19 44 -44s-19 -45 -44 -45z" />
    <glyph glyph-name="Imacron" unicode="&#x12a;" horiz-adv-x="199" 
d="M60 674h77v-674h-77v674zM-6 788h213v-53h-213v53z" />
    <glyph glyph-name="Iogonek" unicode="&#x12e;" horiz-adv-x="199" 
d="M137 674v-674h-22c-16 -22 -41 -65 -41 -102c0 -32 21 -47 41 -47s33 4 43 9l11 -43c-23 -17 -49 -22 -72 -22c-51 0 -84 31 -84 82s31 98 47 123v674h77z" />
    <glyph glyph-name="Itilde" unicode="&#x128;" horiz-adv-x="199" 
d="M60 674h77v-674h-77v674zM35 718h-42c0 56 22 94 60 94c19 0 34 -9 47 -17c15 -9 26 -18 39 -18c17 0 24 9 27 36h40c1 -56 -17 -90 -62 -90c-19 0 -36 9 -49 17c-13 9 -24 17 -36 17c-15 0 -22 -13 -24 -39z" />
    <glyph glyph-name="Jcircumflex" unicode="&#x134;" horiz-adv-x="265" 
d="M134 189v485h77v-484c0 -151 -61 -198 -158 -198c-19 0 -37 2 -50 7l7 65c10 -3 23 -4 37 -4c55 0 87 22 87 129zM135 808h67l87 -98h-68l-52 55h-2l-51 -55h-67z" />
    <glyph glyph-name="Kcommaaccent" unicode="&#x136;" horiz-adv-x="404" 
d="M60 0v674h77v-320h2c15 28 29 55 42 81l126 239h85l-165 -288l169 -386h-83l-138 325l-38 -65v-260h-77zM159 -207l-17 37c30 9 64 28 64 63c0 25 -16 47 -33 61l62 11c17 -11 34 -37 34 -70c0 -63 -54 -93 -110 -102z" />
    <glyph glyph-name="Lacute" unicode="&#x139;" horiz-adv-x="344" 
d="M60 0v674h77v-609h190v-65h-267zM160 818h91l-124 -108h-61z" />
    <glyph glyph-name="Lcaron" unicode="&#x13d;" horiz-adv-x="344" 
d="M60 0v674h77v-609h190v-65h-267zM200 503l-17 37c30 9 64 28 64 63c0 25 -16 47 -33 61l62 11c17 -11 34 -37 34 -70c0 -63 -54 -93 -110 -102z" />
    <glyph glyph-name="Lcommaaccent" unicode="&#x13b;" horiz-adv-x="344" 
d="M60 0v674h77v-609h190v-65h-267zM125 -214l-17 37c30 9 64 28 64 63c0 25 -16 47 -33 61l62 11c17 -11 34 -37 34 -70c0 -63 -54 -93 -110 -102z" />
    <glyph glyph-name="Ldot" unicode="&#x13f;" horiz-adv-x="344" 
d="M60 0v674h77v-609h190v-65h-267zM241 317h-1c-24 0 -44 20 -44 45s20 44 45 44s44 -19 44 -44s-19 -45 -44 -45z" />
    <glyph glyph-name="M_uni0302" unicode="&#xe001;" horiz-adv-x="599" 
d="M482 0l-14 290c-5 89 -10 188 -7 264h-4c-15 -75 -33 -155 -54 -234l-83 -316h-49l-79 303c-22 86 -42 169 -55 247h-3c0 -79 -4 -173 -8 -269l-13 -285h-69l40 674h83l79 -308c23 -89 40 -155 54 -232h3c13 77 28 141 50 232l76 308h86l39 -674h-72zM265 808h67l87 -98
h-68l-52 55h-2l-51 -55h-67z" />
    <glyph glyph-name="Nacute" unicode="&#x143;" horiz-adv-x="465" 
d="M130 0h-70v674h73l124 -316c28 -72 63 -162 86 -235h2c-6 106 -9 193 -9 310v241h69v-674h-73l-128 324c-27 68 -56 145 -80 229h-2c6 -90 8 -176 8 -320v-233zM290 818h91l-124 -108h-61z" />
    <glyph glyph-name="Ncaron" unicode="&#x147;" horiz-adv-x="465" 
d="M130 0h-70v674h73l124 -316c28 -72 63 -162 86 -235h2c-6 106 -9 193 -9 310v241h69v-674h-73l-128 324c-27 68 -56 145 -80 229h-2c6 -90 8 -176 8 -320v-233zM265 710h-66l-87 98h67l52 -58h2l52 58h66z" />
    <glyph glyph-name="N_uni0302" unicode="&#xe002;" horiz-adv-x="465" 
d="M130 0h-70v674h73l124 -316c28 -72 63 -162 86 -235h2c-6 106 -9 193 -9 310v241h69v-674h-73l-128 324c-27 68 -56 145 -80 229h-2c6 -90 8 -176 8 -320v-233zM199 808h67l87 -98h-68l-52 55h-2l-51 -55h-67z" />
    <glyph glyph-name="Ncommaaccent" unicode="&#x145;" horiz-adv-x="465" 
d="M130 0h-70v674h73l124 -316c28 -72 63 -162 86 -235h2c-6 106 -9 193 -9 310v241h69v-674h-73l-128 324c-27 68 -56 145 -80 229h-2c6 -90 8 -176 8 -320v-233zM176 -211l-17 37c30 9 64 28 64 63c0 25 -16 47 -33 61l62 11c17 -11 34 -37 34 -70
c0 -63 -54 -93 -110 -102z" />
    <glyph glyph-name="Obreve" unicode="&#x14e;" horiz-adv-x="446" 
d="M230 682c115 0 184 -125 184 -340c0 -253 -87 -350 -195 -350c-112 0 -187 119 -187 346c0 223 80 344 198 344zM223 614c-84 0 -111 -140 -111 -277c0 -139 27 -277 112 -277c87 0 110 147 110 279c0 126 -23 275 -111 275zM114 809h45c5 -27 28 -43 61 -43s56 14 62 43
h45c0 -57 -40 -96 -106 -96s-107 36 -107 96z" />
    <glyph glyph-name="Ohungarumlaut" unicode="&#x150;" horiz-adv-x="446" 
d="M230 682c115 0 184 -125 184 -340c0 -253 -87 -350 -195 -350c-112 0 -187 119 -187 346c0 223 80 344 198 344zM223 614c-84 0 -111 -140 -111 -277c0 -139 27 -277 112 -277c87 0 110 147 110 279c0 126 -23 275 -111 275zM203 818h81l-100 -99h-53zM330 818h81
l-100 -99h-53z" />
    <glyph glyph-name="Omacron" unicode="&#x14c;" horiz-adv-x="446" 
d="M230 682c115 0 184 -125 184 -340c0 -253 -87 -350 -195 -350c-112 0 -187 119 -187 346c0 223 80 344 198 344zM223 614c-84 0 -111 -140 -111 -277c0 -139 27 -277 112 -277c87 0 110 147 110 279c0 126 -23 275 -111 275zM118 788h213v-53h-213v53z" />
    <glyph glyph-name="Oslashacute" unicode="&#x1fe;" horiz-adv-x="446" 
d="M86 -37l-43 23l42 95c-35 59 -53 146 -53 257c0 224 80 344 192 344c35 0 70 -11 101 -41l30 70l46 -20l-40 -91c36 -61 53 -151 53 -257c0 -252 -87 -351 -191 -351c-35 0 -73 12 -103 45zM129 172l164 398c-17 26 -42 44 -70 44c-85 0 -115 -140 -115 -276
c0 -50 2 -110 19 -166h2zM317 507l-168 -397c19 -35 45 -50 74 -50c87 0 114 142 114 279c0 51 -2 110 -18 168h-2zM275 818h91l-124 -108h-61z" />
    <glyph glyph-name="Racute" unicode="&#x154;" horiz-adv-x="409" 
d="M60 0v664c33 9 73 13 111 13c67 0 117 -14 152 -48c33 -34 47 -79 47 -132c0 -86 -40 -142 -108 -173v-2c50 -15 76 -63 91 -151c15 -93 29 -150 38 -171h-78c-10 20 -23 84 -36 167c-15 92 -44 127 -110 127h-30v-294h-77zM137 611v-258h32c74 0 123 54 123 135
c0 78 -32 126 -115 127c-15 0 -30 -1 -40 -4zM244 818h91l-124 -108h-61z" />
    <glyph glyph-name="Rcaron" unicode="&#x158;" horiz-adv-x="409" 
d="M60 0v664c33 9 73 13 111 13c67 0 117 -14 152 -48c33 -34 47 -79 47 -132c0 -86 -40 -142 -108 -173v-2c50 -15 76 -63 91 -151c15 -93 29 -150 38 -171h-78c-10 20 -23 84 -36 167c-15 92 -44 127 -110 127h-30v-294h-77zM137 611v-258h32c74 0 123 54 123 135
c0 78 -32 126 -115 127c-15 0 -30 -1 -40 -4zM229 710h-66l-87 98h67l52 -58h2l52 58h66z" />
    <glyph glyph-name="Rcommaaccent" unicode="&#x156;" horiz-adv-x="409" 
d="M60 0v664c33 9 73 13 111 13c67 0 117 -14 152 -48c33 -34 47 -79 47 -132c0 -86 -40 -142 -108 -173v-2c50 -15 76 -63 91 -151c15 -93 29 -150 38 -171h-78c-10 20 -23 84 -36 167c-15 92 -44 127 -110 127h-30v-294h-77zM137 611v-258h32c74 0 123 54 123 135
c0 78 -32 126 -115 127c-15 0 -30 -1 -40 -4zM157 -207l-17 37c30 9 64 28 64 63c0 25 -16 47 -33 61l62 11c17 -11 34 -37 34 -70c0 -63 -54 -93 -110 -102z" />
    <glyph glyph-name="Sacute" unicode="&#x15a;" horiz-adv-x="361" 
d="M28 23l17 66c23 -15 63 -27 97 -27c70 0 112 46 112 114c0 62 -36 100 -89 140c-53 37 -127 100 -127 187c0 102 71 177 178 177c42 0 79 -13 95 -25l-19 -66c-17 12 -45 23 -80 23c-66 0 -97 -50 -97 -96c0 -67 35 -93 99 -139c81 -57 117 -119 117 -194
c0 -116 -82 -189 -189 -189c-46 0 -95 15 -114 29zM229 818h91l-124 -108h-61z" />
    <glyph glyph-name="Scedilla" unicode="&#x15e;" horiz-adv-x="361" 
d="M28 23l17 66c23 -15 63 -27 97 -27c70 0 112 46 112 114c0 62 -36 100 -89 140c-53 37 -127 100 -127 187c0 102 71 177 178 177c42 0 79 -13 95 -25l-19 -66c-17 12 -45 23 -80 23c-66 0 -97 -50 -97 -96c0 -67 35 -93 99 -139c81 -57 117 -119 117 -194
c0 -94 -53 -159 -130 -181l-27 -52c34 -5 65 -33 65 -71c0 -57 -47 -79 -91 -79c-24 0 -49 8 -66 18l15 42c16 -10 31 -15 50 -15c18 0 37 7 37 31c0 27 -33 39 -69 43l34 75h-7c-46 0 -95 15 -114 29z" />
    <glyph glyph-name="Scircumflex" unicode="&#x15c;" horiz-adv-x="361" 
d="M28 23l17 66c23 -15 63 -27 97 -27c70 0 112 46 112 114c0 62 -36 100 -89 140c-53 37 -127 100 -127 187c0 102 71 177 178 177c42 0 79 -13 95 -25l-19 -66c-17 12 -45 23 -80 23c-66 0 -97 -50 -97 -96c0 -67 35 -93 99 -139c81 -57 117 -119 117 -194
c0 -116 -82 -189 -189 -189c-46 0 -95 15 -114 29zM155 808h67l87 -98h-68l-52 55h-2l-51 -55h-67z" />
    <glyph glyph-name="Scommaaccent" unicode="&#x218;" horiz-adv-x="361" 
d="M28 23l17 66c23 -15 63 -27 97 -27c70 0 112 46 112 114c0 62 -36 100 -89 140c-53 37 -127 100 -127 187c0 102 71 177 178 177c42 0 79 -13 95 -25l-19 -66c-17 12 -45 23 -80 23c-66 0 -97 -50 -97 -96c0 -67 35 -93 99 -139c81 -57 117 -119 117 -194
c0 -116 -82 -189 -189 -189c-46 0 -95 15 -114 29zM119 -214l-17 37c30 9 64 28 64 63c0 25 -16 47 -33 61l62 11c17 -11 34 -37 34 -70c0 -63 -54 -93 -110 -102z" />
    <glyph glyph-name="Tcaron" unicode="&#x164;" horiz-adv-x="354" 
d="M139 0v605h-123v69h323v-69h-123v-605h-77zM209 710h-66l-87 98h67l52 -58h2l52 58h66z" />
    <glyph glyph-name="Tcommaaccent" unicode="&#x162;" horiz-adv-x="354" 
d="M139 0v605h-123v69h323v-69h-123v-605h-77zM123 -214l-17 37c30 9 64 28 64 63c0 25 -16 47 -33 61l62 11c17 -11 34 -37 34 -70c0 -63 -54 -93 -110 -102z" />
    <glyph glyph-name="Ubreve" unicode="&#x16c;" horiz-adv-x="457" 
d="M59 674h77v-452c0 -121 40 -162 92 -162c57 0 93 44 93 162v452h77v-440c0 -175 -72 -242 -172 -242c-101 0 -167 66 -167 233v449zM121 806h45c5 -27 28 -43 61 -43s56 14 62 43h45c0 -57 -40 -96 -106 -96s-107 36 -107 96z" />
    <glyph glyph-name="Uhungarumlaut" unicode="&#x170;" horiz-adv-x="457" 
d="M59 674h77v-452c0 -121 40 -162 92 -162c57 0 93 44 93 162v452h77v-440c0 -175 -72 -242 -172 -242c-101 0 -167 66 -167 233v449zM199 818h81l-100 -99h-53zM326 818h81l-100 -99h-53z" />
    <glyph glyph-name="Umacron" unicode="&#x16a;" horiz-adv-x="457" 
d="M59 674h77v-452c0 -121 40 -162 92 -162c57 0 93 44 93 162v452h77v-440c0 -175 -72 -242 -172 -242c-101 0 -167 66 -167 233v449zM121 788h213v-53h-213v53z" />
    <glyph glyph-name="Uogonek" unicode="&#x172;" horiz-adv-x="457" 
d="M323 -126l11 -43c-20 -15 -49 -22 -72 -22c-51 0 -84 30 -84 76c0 39 26 81 50 108h-12c-93 4 -157 69 -157 232v449h77v-452c0 -121 40 -162 92 -162c57 0 93 44 93 162v452h77v-440c0 -120 -34 -194 -93 -222c-36 -28 -66 -72 -66 -108c0 -29 20 -41 40 -41
c16 0 31 4 44 11z" />
    <glyph glyph-name="Uring" unicode="&#x16e;" horiz-adv-x="457" 
d="M59 674h77v-452c0 -121 40 -162 92 -162c57 0 93 44 93 162v452h77v-440c0 -175 -72 -242 -172 -242c-101 0 -167 66 -167 233v449zM228 862h1c58 0 92 -40 92 -88c0 -47 -37 -87 -93 -87c-59 0 -94 40 -94 86c0 47 36 89 94 89zM227 826h-1c-29 0 -44 -26 -44 -53
c0 -23 17 -49 45 -49c29 0 46 24 46 51s-17 51 -46 51z" />
    <glyph glyph-name="Utilde" unicode="&#x168;" horiz-adv-x="457" 
d="M59 674h77v-452c0 -121 40 -162 92 -162c57 0 93 44 93 162v452h77v-440c0 -175 -72 -242 -172 -242c-101 0 -167 66 -167 233v449zM163 718h-42c0 56 22 94 60 94c19 0 34 -9 47 -17c15 -9 26 -18 39 -18c17 0 24 9 27 36h40c1 -56 -17 -90 -62 -90c-19 0 -36 9 -49 17
c-13 9 -24 17 -36 17c-15 0 -22 -13 -24 -39z" />
    <glyph glyph-name="Wacute" unicode="&#x1e82;" horiz-adv-x="654" 
d="M222 0h-72l-130 674h80l57 -325c14 -85 25 -160 33 -243h4c8 85 24 158 40 244l62 324h66l62 -317c15 -80 30 -157 39 -251h3c11 97 23 171 36 247l56 321h75l-131 -674h-75l-65 328c-13 71 -26 147 -34 221h-2c-10 -76 -21 -149 -37 -224zM379 818h91l-124 -108h-61z
" />
    <glyph glyph-name="Wcircumflex" unicode="&#x174;" horiz-adv-x="654" 
d="M222 0h-72l-130 674h80l57 -325c14 -85 25 -160 33 -243h4c8 85 24 158 40 244l62 324h66l62 -317c15 -80 30 -157 39 -251h3c11 97 23 171 36 247l56 321h75l-131 -674h-75l-65 328c-13 71 -26 147 -34 221h-2c-10 -76 -21 -149 -37 -224zM296 808h67l87 -98h-68l-52 55
h-2l-51 -55h-67z" />
    <glyph glyph-name="Wdieresis" unicode="&#x1e84;" horiz-adv-x="654" 
d="M222 0h-72l-130 674h80l57 -325c14 -85 25 -160 33 -243h4c8 85 24 158 40 244l62 324h66l62 -317c15 -80 30 -157 39 -251h3c11 97 23 171 36 247l56 321h75l-131 -674h-75l-65 328c-13 71 -26 147 -34 221h-2c-10 -76 -21 -149 -37 -224zM249 725h-1
c-24 0 -42 18 -42 46c0 27 19 47 43 47c26 0 43 -20 43 -47c0 -28 -17 -46 -43 -46zM411 725h-1c-24 0 -43 18 -43 46c0 27 19 47 44 47c26 0 43 -20 43 -47c0 -28 -17 -46 -43 -46z" />
    <glyph glyph-name="Wgrave" unicode="&#x1e80;" horiz-adv-x="654" 
d="M222 0h-72l-130 674h80l57 -325c14 -85 25 -160 33 -243h4c8 85 24 158 40 244l62 324h66l62 -317c15 -80 30 -157 39 -251h3c11 97 23 171 36 247l56 321h75l-131 -674h-75l-65 328c-13 71 -26 147 -34 221h-2c-10 -76 -21 -149 -37 -224zM189 818h91l95 -108h-61z" />
    <glyph glyph-name="Ycircumflex" unicode="&#x176;" horiz-adv-x="394" 
d="M235 0h-77v285l-148 389h81l60 -169c17 -47 35 -100 50 -152h2c14 52 31 103 49 155l57 166h81l-155 -386v-288zM167 808h67l87 -98h-68l-52 55h-2l-51 -55h-67z" />
    <glyph glyph-name="Ygrave" unicode="&#x1ef2;" horiz-adv-x="394" 
d="M235 0h-77v285l-148 389h81l60 -169c17 -47 35 -100 50 -152h2c14 52 31 103 49 155l57 166h81l-155 -386v-288zM61 811h91l95 -108h-61z" />
    <glyph glyph-name="uni0232" unicode="&#x232;" horiz-adv-x="394" 
d="M235 0h-77v285l-148 389h81l60 -169c17 -47 35 -100 50 -152h2c14 52 31 103 49 155l57 166h81l-155 -386v-288zM90 788h213v-53h-213v53z" />
    <glyph glyph-name="Zacute" unicode="&#x179;" horiz-adv-x="358" 
d="M20 0v46l231 559v3h-212v66h298v-52l-227 -553v-3h226v-66h-316zM235 818h91l-124 -108h-61z" />
    <glyph glyph-name="Zdotaccent" unicode="&#x17b;" horiz-adv-x="358" 
d="M20 0v46l231 559v3h-212v66h298v-52l-227 -553v-3h226v-66h-316zM193 721h-1c-24 0 -44 20 -44 45s20 44 45 44s44 -19 44 -44s-19 -45 -44 -45z" />
    <glyph glyph-name="AEacute" unicode="&#x1fc;" horiz-adv-x="556" 
d="M83 0h-75l203 674h304v-67h-186l13 -226h171v-65h-165l14 -249h179l-1 -67h-247l-13 222h-134zM162 284h112l-9 205c-2 43 -4 90 -6 131h-5c-12 -45 -27 -100 -39 -144zM384 818h91l-124 -108h-61z" />
    <glyph glyph-name="abreve" unicode="&#x103;" horiz-adv-x="364" 
d="M76 669h43c3 -37 28 -62 62 -62c39 0 63 26 64 62h43c2 -66 -40 -113 -107 -113c-68 0 -107 50 -105 113zM310 319v-209c0 -37 0 -79 5 -110h-70l-5 51h-3c-21 -37 -55 -59 -96 -59c-65 0 -115 55 -115 138c0 121 97 175 206 176v15c0 65 -16 110 -77 110
c-30 0 -57 -10 -80 -25l-17 54c20 15 65 32 113 32c97 0 139 -64 139 -173zM234 152v98c-40 0 -133 -7 -133 -112c0 -63 32 -86 59 -86c34 0 63 25 72 73c2 9 2 19 2 27z" />
    <glyph glyph-name="amacron" unicode="&#x101;" horiz-adv-x="364" 
d="M84 631h197v-50h-197v50zM310 319v-209c0 -37 0 -79 5 -110h-70l-5 51h-3c-21 -37 -55 -59 -96 -59c-65 0 -115 55 -115 138c0 121 97 175 206 176v15c0 65 -16 110 -77 110c-30 0 -57 -10 -80 -25l-17 54c20 15 65 32 113 32c97 0 139 -64 139 -173zM234 152v98
c-40 0 -133 -7 -133 -112c0 -63 32 -86 59 -86c34 0 63 25 72 73c2 9 2 19 2 27z" />
    <glyph glyph-name="aogonek" unicode="&#x105;" horiz-adv-x="364" 
d="M310 319v-209c0 -52 1 -83 8 -110h-18c-17 -22 -41 -65 -41 -103c0 -30 21 -46 41 -46c19 0 33 4 43 9l11 -43c-23 -17 -50 -22 -72 -22c-51 0 -84 31 -84 83c0 50 31 97 47 122l-5 51h-3c-21 -37 -55 -59 -96 -59c-65 0 -115 55 -115 138c0 121 97 175 206 176v15
c0 65 -16 110 -77 110c-30 0 -57 -10 -80 -25l-17 54c20 15 65 32 113 32c97 0 139 -64 139 -173zM234 152v98c-40 0 -133 -7 -133 -112c0 -63 32 -86 59 -86c34 0 63 25 72 73c2 9 2 19 2 27z" />
    <glyph glyph-name="uni01FB" unicode="&#x1fb;" horiz-adv-x="364" 
d="M234 806h81l-117 -95h-52zM310 319v-209c0 -37 0 -79 5 -110h-70l-5 51h-3c-21 -37 -55 -59 -96 -59c-65 0 -115 55 -115 138c0 121 97 175 206 176v15c0 65 -16 110 -77 110c-30 0 -57 -10 -80 -25l-17 54c20 15 65 32 113 32c97 0 139 -64 139 -173zM234 152v98
c-40 0 -133 -7 -133 -112c0 -63 32 -86 59 -86c34 0 63 25 72 73c2 9 2 19 2 27zM184 516c-57 0 -93 38 -93 85c0 49 34 89 94 89c55 0 91 -39 91 -88s-39 -86 -92 -86zM183 551c31 0 48 24 48 52c0 27 -16 52 -49 52c-29 0 -45 -27 -45 -54c0 -24 17 -50 46 -50z" />
    <glyph glyph-name="cacute" unicode="&#x107;" horiz-adv-x="302" 
d="M235 682h79l-105 -135h-51zM280 71l10 -59c-17 -10 -46 -18 -80 -18c-106 0 -177 85 -177 245c0 139 70 252 191 252c26 0 54 -7 68 -15l-15 -63c-10 5 -30 13 -55 13c-77 0 -112 -92 -112 -187c0 -113 43 -181 114 -181c21 0 38 5 56 13z" />
    <glyph glyph-name="ccaron" unicode="&#x10d;" horiz-adv-x="302" 
d="M217 547h-53l-79 135h58l46 -87h2l47 87h58zM280 71l10 -59c-17 -10 -46 -18 -80 -18c-106 0 -177 85 -177 245c0 139 70 252 191 252c26 0 54 -7 68 -15l-15 -63c-10 5 -30 13 -55 13c-77 0 -112 -92 -112 -187c0 -113 43 -181 114 -181c21 0 38 5 56 13z" />
    <glyph glyph-name="ccircumflex" unicode="&#x109;" horiz-adv-x="302" 
d="M167 682h52l79 -135h-57l-47 86h-2l-46 -86h-58zM280 71l10 -59c-17 -10 -46 -18 -80 -18c-106 0 -177 85 -177 245c0 139 70 252 191 252c26 0 54 -7 68 -15l-15 -63c-10 5 -30 13 -55 13c-77 0 -112 -92 -112 -187c0 -113 43 -181 114 -181c21 0 38 5 56 13z" />
    <glyph glyph-name="cdotaccent" unicode="&#x10b;" horiz-adv-x="302" 
d="M191 566h-1c-24 0 -43 19 -43 44c0 26 20 45 44 45s43 -18 43 -45c0 -25 -18 -44 -43 -44zM280 71l10 -59c-17 -10 -46 -18 -80 -18c-106 0 -177 85 -177 245c0 139 70 252 191 252c26 0 54 -7 68 -15l-15 -63c-10 5 -30 13 -55 13c-77 0 -112 -92 -112 -187
c0 -113 43 -181 114 -181c21 0 38 5 56 13z" />
    <glyph glyph-name="dcaron" unicode="&#x10f;" horiz-adv-x="409" 
d="M269 692h76v-576c0 -33 3 -88 4 -116h-66l-5 61h-3c-16 -35 -50 -69 -101 -69c-82 0 -141 89 -141 248c0 172 71 252 146 252c35 0 69 -17 88 -58h2v258zM269 171v129c0 10 0 21 -1 32c-5 50 -35 94 -72 94c-64 0 -86 -89 -86 -186c0 -102 26 -184 82 -184
c24 0 57 13 74 83c2 9 3 20 3 32zM422 505l-34 22c13 20 29 54 29 90c0 30 -15 54 -32 68l57 12c17 -12 33 -38 33 -72c0 -60 -37 -101 -53 -120z" />
    <glyph glyph-name="ebreve" unicode="&#x115;" horiz-adv-x="363" 
d="M83 669h43c3 -37 28 -62 62 -62c39 0 63 26 64 62h43c2 -66 -40 -113 -107 -113c-68 0 -107 50 -105 113zM333 235h-225c1 -148 59 -180 115 -180c33 0 61 8 80 19l12 -57c-27 -15 -68 -23 -106 -23c-116 0 -176 95 -176 243c0 157 66 255 163 255
c99 0 138 -104 138 -214c0 -18 0 -31 -1 -43zM109 292h151c2 97 -35 140 -72 140c-50 0 -76 -74 -79 -140z" />
    <glyph glyph-name="ecaron" unicode="&#x11b;" horiz-adv-x="363" 
d="M214 547h-53l-79 135h58l46 -87h2l47 87h58zM333 235h-225c1 -148 59 -180 115 -180c33 0 61 8 80 19l12 -57c-27 -15 -68 -23 -106 -23c-116 0 -176 95 -176 243c0 157 66 255 163 255c99 0 138 -104 138 -214c0 -18 0 -31 -1 -43zM109 292h151c2 97 -35 140 -72 140
c-50 0 -76 -74 -79 -140z" />
    <glyph glyph-name="edotaccent" unicode="&#x117;" horiz-adv-x="363" 
d="M190 566h-1c-24 0 -43 19 -43 44c0 26 20 45 44 45s43 -18 43 -45c0 -25 -18 -44 -43 -44zM333 235h-225c1 -148 59 -180 115 -180c33 0 61 8 80 19l12 -57c-27 -15 -68 -23 -106 -23c-116 0 -176 95 -176 243c0 157 66 255 163 255c99 0 138 -104 138 -214
c0 -18 0 -31 -1 -43zM109 292h151c2 97 -35 140 -72 140c-50 0 -76 -74 -79 -140z" />
    <glyph glyph-name="emacron" unicode="&#x113;" horiz-adv-x="363" 
d="M89 631h197v-50h-197v50zM333 235h-225c1 -148 59 -180 115 -180c33 0 61 8 80 19l12 -57c-27 -15 -68 -23 -106 -23c-116 0 -176 95 -176 243c0 157 66 255 163 255c99 0 138 -104 138 -214c0 -18 0 -31 -1 -43zM109 292h151c2 97 -35 140 -72 140
c-50 0 -76 -74 -79 -140z" />
    <glyph glyph-name="eogonek" unicode="&#x119;" horiz-adv-x="363" 
d="M277 -132l13 -42c-22 -18 -52 -25 -74 -25c-51 0 -83 30 -83 75c0 48 41 95 76 117v1h-4c-113 2 -172 96 -172 243c0 157 66 255 163 255c99 0 138 -104 138 -214c0 -18 0 -33 -1 -43h-225c1 -148 59 -180 115 -180c33 0 61 8 80 19l12 -57c-9 -4 -20 -9 -26 -11
c-48 -24 -95 -71 -95 -112c0 -28 19 -39 37 -39c16 0 32 5 46 13zM109 292h151c2 97 -35 140 -72 140c-50 0 -76 -74 -79 -140z" />
    <glyph glyph-name="gbreve" unicode="&#x11f;" horiz-adv-x="399" 
d="M93 669h43c3 -37 28 -62 62 -62c39 0 63 26 64 62h43c2 -66 -40 -113 -107 -113c-68 0 -107 50 -105 113zM346 333v-271c0 -127 -16 -175 -48 -210c-29 -33 -75 -52 -129 -52c-41 0 -81 10 -106 24l18 60c19 -10 51 -21 90 -21c61 0 99 38 99 148v49h-2
c-17 -38 -52 -59 -93 -59c-86 0 -142 97 -142 239c0 178 81 252 152 252c52 0 76 -34 90 -63h2l4 55h69c-1 -34 -4 -77 -4 -151zM270 177v140c0 12 -1 25 -4 35c-9 33 -26 74 -70 74c-56 0 -86 -75 -86 -182c0 -124 39 -180 86 -180c23 0 53 11 69 69c4 15 5 30 5 44z" />
    <glyph glyph-name="gcircumflex" unicode="&#x11d;" horiz-adv-x="399" 
d="M171 682h52l79 -135h-57l-47 86h-2l-46 -86h-58zM346 333v-271c0 -127 -16 -175 -48 -210c-29 -33 -75 -52 -129 -52c-41 0 -81 10 -106 24l18 60c19 -10 51 -21 90 -21c61 0 99 38 99 148v49h-2c-17 -38 -52 -59 -93 -59c-86 0 -142 97 -142 239c0 178 81 252 152 252
c52 0 76 -34 90 -63h2l4 55h69c-1 -34 -4 -77 -4 -151zM270 177v140c0 12 -1 25 -4 35c-9 33 -26 74 -70 74c-56 0 -86 -75 -86 -182c0 -124 39 -180 86 -180c23 0 53 11 69 69c4 15 5 30 5 44z" />
    <glyph glyph-name="gcommaaccent" unicode="&#x123;" horiz-adv-x="399" 
d="M346 333v-271c0 -127 -16 -175 -48 -210c-29 -33 -75 -52 -129 -52c-41 0 -81 10 -106 24l18 60c19 -10 51 -21 90 -21c61 0 99 38 99 148v49h-2c-17 -38 -52 -59 -93 -59c-86 0 -142 97 -142 239c0 178 81 252 152 252c52 0 76 -34 90 -63h2l4 55h69
c-1 -34 -4 -77 -4 -151zM270 177v140c0 12 -1 25 -4 35c-9 33 -26 74 -70 74c-56 0 -86 -75 -86 -182c0 -124 39 -180 86 -180c23 0 53 11 69 69c4 15 5 30 5 44zM259 701l16 -34c-34 -9 -67 -28 -67 -65c0 -26 17 -47 35 -61l-60 -12c-17 13 -34 39 -34 70
c0 64 54 93 110 102z" />
    <glyph glyph-name="gdotaccent" unicode="&#x121;" horiz-adv-x="399" 
d="M201 566h-1c-24 0 -43 19 -43 44c0 26 20 45 44 45s43 -18 43 -45c0 -25 -18 -44 -43 -44zM346 333v-271c0 -127 -16 -175 -48 -210c-29 -33 -75 -52 -129 -52c-41 0 -81 10 -106 24l18 60c19 -10 51 -21 90 -21c61 0 99 38 99 148v49h-2c-17 -38 -52 -59 -93 -59
c-86 0 -142 97 -142 239c0 178 81 252 152 252c52 0 76 -34 90 -63h2l4 55h69c-1 -34 -4 -77 -4 -151zM270 177v140c0 12 -1 25 -4 35c-9 33 -26 74 -70 74c-56 0 -86 -75 -86 -182c0 -124 39 -180 86 -180c23 0 53 11 69 69c4 15 5 30 5 44z" />
    <glyph glyph-name="g_tildecomb" unicode="&#xe005;" horiz-adv-x="399" 
d="M299 333v-271c0 -127 -16 -175 -48 -210c-29 -33 -75 -52 -129 -52c-41 0 -81 10 -106 24l18 60c19 -10 51 -21 90 -21c61 0 99 38 99 148v49h-2c-17 -38 -52 -59 -93 -59c-86 0 -142 97 -142 239c0 178 81 252 152 252c52 0 76 -34 90 -63h2l4 55h69
c-1 -34 -4 -77 -4 -151zM223 177v140c0 12 -1 25 -4 35c-9 33 -26 74 -70 74c-56 0 -86 -75 -86 -182c0 -124 39 -180 86 -180c23 0 53 11 69 69c4 15 5 30 5 44zM133 561h-42c-1 53 20 94 61 94c21 0 35 -9 49 -17c15 -9 26 -17 40 -17c15 0 23 7 25 36h41
c0 -55 -20 -90 -63 -90c-18 0 -35 9 -49 17s-25 17 -37 17c-15 0 -23 -14 -25 -40z" />
    <glyph glyph-name="hcircumflex" unicode="&#x125;" horiz-adv-x="405" 
d="M54 0v692h77v-260h2c10 17 25 32 40 42c18 11 37 18 65 18c61 0 113 -49 113 -171v-321h-77v312c0 59 -13 115 -65 115c-36 0 -63 -26 -75 -77c-2 -11 -3 -25 -3 -37v-313h-77zM60 818h67l87 -98h-68l-52 55h-2l-51 -55h-67z" />
    <glyph glyph-name="ibreve" unicode="&#x12d;" horiz-adv-x="184" 
d="M-13 669h43c3 -37 28 -62 62 -62c39 0 63 26 64 62h43c2 -66 -40 -113 -107 -113c-68 0 -107 50 -105 113zM131 0h-77v484h77v-484z" />
    <glyph glyph-name="imacron" unicode="&#x12b;" horiz-adv-x="184" 
d="M-5 631h197v-50h-197v50zM131 0h-77v484h77v-484z" />
    <glyph glyph-name="iogonek" unicode="&#x12f;" horiz-adv-x="184" 
d="M91 559h-1c-25 0 -44 20 -44 50s20 50 45 50c28 0 46 -20 46 -50c1 -30 -18 -50 -46 -50zM131 484v-484h-23c-16 -22 -41 -65 -41 -103c0 -30 22 -46 42 -46c19 0 33 4 42 9l11 -43c-22 -17 -49 -22 -72 -22c-51 0 -84 31 -84 83c0 50 32 97 48 122v484h77z" />
    <glyph glyph-name="itilde" unicode="&#x129;" horiz-adv-x="184" 
d="M27 561h-42c-1 53 20 94 61 94c21 0 35 -9 49 -17c15 -9 26 -17 40 -17c15 0 23 7 25 36h41c0 -55 -20 -90 -63 -90c-18 0 -35 9 -49 17s-25 17 -37 17c-15 0 -23 -14 -25 -40zM131 0h-77v484h77v-484z" />
    <glyph glyph-name="jcircumflex" unicode="&#x135;" horiz-adv-x="188" 
d="M-18 -200l-10 61c22 6 49 14 65 38c17 26 23 62 23 154v431h77v-453c0 -102 -15 -149 -49 -185c-29 -30 -76 -45 -106 -46zM69 675h52l79 -135h-57l-47 86h-2l-46 -86h-58z" />
    <glyph glyph-name="kcommaaccent" unicode="&#x137;" horiz-adv-x="354" 
d="M130 692v-433h2c9 19 17 38 26 54l96 171h83l-128 -204l139 -280h-86l-105 228l-27 -45v-183h-77v692h77zM130 -214l-17 37c30 9 64 28 64 63c0 25 -16 47 -33 61l62 11c17 -11 34 -37 34 -70c0 -63 -54 -93 -110 -102z" />
    <glyph glyph-name="lacute" unicode="&#x13a;" horiz-adv-x="191" 
d="M54 0v692h77v-692h-77zM144 828h91l-124 -108h-61z" />
    <glyph glyph-name="lcaron" unicode="&#x13e;" horiz-adv-x="194" 
d="M54 0v692h77v-692h-77zM208 505l-34 22c13 20 29 54 29 90c0 30 -15 54 -32 68l57 12c17 -12 33 -38 33 -72c0 -60 -37 -101 -53 -120z" />
    <glyph glyph-name="lcommaaccent" unicode="&#x13c;" horiz-adv-x="191" 
d="M54 0v692h77v-692h-77zM44 -214l-17 37c30 9 64 28 64 63c0 25 -16 47 -33 61l62 11c17 -11 34 -37 34 -70c0 -63 -54 -93 -110 -102z" />
    <glyph glyph-name="ldot" unicode="&#x140;" horiz-adv-x="235" 
d="M54 0v692h77v-692h-77zM212 349h-1c-23 0 -41 20 -41 45s19 44 42 44c22 0 40 -19 40 -44s-17 -45 -40 -45z" />
    <glyph glyph-name="m_uni0302" unicode="&#xe006;" horiz-adv-x="620" 
d="M284 682h52l79 -135h-57l-47 86h-2l-46 -86h-58zM54 0v359c0 57 -3 86 -4 125h67l4 -60h2c21 39 58 68 109 68c45 0 83 -22 101 -74h2c13 24 30 43 48 55c19 13 42 19 67 19c65 0 116 -48 116 -171v-321h-76v303c0 63 -9 124 -68 124c-32 0 -60 -27 -71 -72
c-2 -13 -3 -28 -3 -44v-311h-76v317c0 54 -10 110 -67 110c-31 0 -63 -27 -72 -78c-2 -13 -3 -27 -3 -42v-307h-76z" />
    <glyph glyph-name="nacute" unicode="&#x144;" horiz-adv-x="405" 
d="M247 682h79l-105 -135h-51zM54 0v359c0 57 -3 86 -4 125h67l4 -58h2c21 39 60 66 111 66c67 0 117 -50 117 -167v-325h-77v312c0 57 -11 115 -67 115c-32 0 -63 -27 -73 -79c-2 -12 -3 -27 -3 -43v-305h-77z" />
    <glyph glyph-name="ncaron" unicode="&#x148;" horiz-adv-x="405" 
d="M229 547h-53l-79 135h58l46 -87h2l47 87h58zM54 0v359c0 57 -3 86 -4 125h67l4 -58h2c21 39 60 66 111 66c67 0 117 -50 117 -167v-325h-77v312c0 57 -11 115 -67 115c-32 0 -63 -27 -73 -79c-2 -12 -3 -27 -3 -43v-305h-77z" />
    <glyph glyph-name="n_uni0302" unicode="&#xe007;" horiz-adv-x="405" 
d="M176 682h52l79 -135h-57l-47 86h-2l-46 -86h-58zM54 0v359c0 57 -3 86 -4 125h67l4 -58h2c21 39 60 66 111 66c67 0 117 -50 117 -167v-325h-77v312c0 57 -11 115 -67 115c-32 0 -63 -27 -73 -79c-2 -12 -3 -27 -3 -43v-305h-77z" />
    <glyph glyph-name="ncommaaccent" unicode="&#x146;" horiz-adv-x="405" 
d="M54 0v359c0 57 -3 86 -4 125h67l4 -58h2c21 39 60 66 111 66c67 0 117 -50 117 -167v-325h-77v312c0 57 -11 115 -67 115c-32 0 -63 -27 -73 -79c-2 -12 -3 -27 -3 -43v-305h-77zM158 -208l-17 37c30 9 64 28 64 63c0 25 -16 47 -33 61l62 11c17 -11 34 -37 34 -70
c0 -63 -54 -93 -110 -102z" />
    <glyph glyph-name="obreve" unicode="&#x14f;" horiz-adv-x="383" 
d="M84 669h43c3 -37 28 -62 62 -62c39 0 63 26 64 62h43c2 -66 -40 -113 -107 -113c-68 0 -107 50 -105 113zM195 492c86 0 156 -81 156 -250c0 -187 -87 -250 -161 -250c-87 0 -157 79 -157 249c0 177 79 251 162 251zM192 430c-69 0 -82 -114 -82 -188
c0 -80 14 -189 84 -189c66 0 79 114 79 189c0 74 -13 188 -81 188z" />
    <glyph glyph-name="ohungarumlaut" unicode="&#x151;" horiz-adv-x="383" 
d="M179 682h70l-104 -135h-44zM303 682h70l-104 -135h-44zM195 492c86 0 156 -81 156 -250c0 -187 -87 -250 -161 -250c-87 0 -157 79 -157 249c0 177 79 251 162 251zM192 430c-69 0 -82 -114 -82 -188c0 -80 14 -189 84 -189c66 0 79 114 79 189c0 74 -13 188 -81 188z
" />
    <glyph glyph-name="omacron" unicode="&#x14d;" horiz-adv-x="383" 
d="M94 631h197v-50h-197v50zM195 492c86 0 156 -81 156 -250c0 -187 -87 -250 -161 -250c-87 0 -157 79 -157 249c0 177 79 251 162 251zM192 430c-69 0 -82 -114 -82 -188c0 -80 14 -189 84 -189c66 0 79 114 79 189c0 74 -13 188 -81 188z" />
    <glyph glyph-name="oslashacute" unicode="&#x1ff;" horiz-adv-x="383" 
d="M230 682h79l-105 -135h-51zM192 492h1c28 0 56 -10 81 -30l25 53l42 -22l-34 -68c28 -41 44 -101 44 -183c0 -187 -88 -250 -159 -250c-29 0 -57 9 -81 28l-26 -53l-39 25l31 64c-27 40 -44 102 -44 185c0 177 79 251 159 251zM122 131l121 267c-8 20 -25 32 -51 32
c-74 0 -85 -119 -85 -188c0 -30 2 -70 13 -110zM263 348l-120 -264c9 -19 26 -31 49 -31c71 0 85 110 85 184c0 31 -2 69 -12 110z" />
    <glyph glyph-name="racute" unicode="&#x155;" horiz-adv-x="248" 
d="M180 682h79l-105 -135h-51zM53 0v359c0 41 -3 89 -4 125h69l4 -76h2c16 46 57 84 102 84c6 0 11 -1 16 -1v-79c-5 1 -10 1 -16 1c-49 0 -85 -45 -93 -101c-2 -13 -3 -28 -3 -44v-268h-77z" />
    <glyph glyph-name="rcaron" unicode="&#x159;" horiz-adv-x="248" 
d="M162 547h-53l-79 135h58l46 -87h2l47 87h58zM53 0v359c0 41 -3 89 -4 125h69l4 -76h2c16 46 57 84 102 84c6 0 11 -1 16 -1v-79c-5 1 -10 1 -16 1c-49 0 -85 -45 -93 -101c-2 -13 -3 -28 -3 -44v-268h-77z" />
    <glyph glyph-name="rcommaaccent" unicode="&#x157;" horiz-adv-x="248" 
d="M53 0v359c0 41 -3 89 -4 125h69l4 -76h2c16 46 57 84 102 84c6 0 11 -1 16 -1v-79c-5 1 -10 1 -16 1c-49 0 -85 -45 -93 -101c-2 -13 -3 -28 -3 -44v-268h-77zM55 -214l-17 37c30 9 64 28 64 63c0 25 -16 47 -33 61l62 11c17 -11 34 -37 34 -70c0 -63 -54 -93 -110 -102z
" />
    <glyph glyph-name="sacute" unicode="&#x15b;" horiz-adv-x="289" 
d="M190 682h79l-105 -135h-51zM22 22l19 58c17 -11 47 -25 78 -25c44 0 71 27 71 70c0 37 -13 62 -62 95c-63 41 -97 82 -97 138c0 78 58 134 133 134c38 0 67 -13 87 -25l-21 -58c-18 12 -39 21 -64 21c-42 0 -63 -30 -63 -61c0 -33 12 -51 60 -84c56 -36 100 -80 100 -147
c0 -97 -66 -144 -145 -144c-36 0 -75 11 -96 28z" />
    <glyph glyph-name="scedilla" unicode="&#x15f;" horiz-adv-x="289" 
d="M22 22l19 58c17 -11 47 -25 78 -25c44 0 71 27 71 70c0 37 -13 62 -62 95c-63 41 -97 82 -97 138c0 78 58 134 133 134c38 0 67 -13 87 -25l-21 -58c-18 12 -39 21 -64 21c-42 0 -63 -30 -63 -61c0 -33 12 -51 60 -84c56 -36 100 -80 100 -147c0 -76 -40 -121 -95 -137
l-26 -51c34 -5 65 -33 65 -71c0 -57 -47 -79 -91 -79c-25 0 -49 8 -66 18l15 42c16 -10 31 -15 50 -15s36 7 36 30c0 27 -30 40 -68 44l34 75h-4c-28 0 -66 9 -91 28z" />
    <glyph glyph-name="scircumflex" unicode="&#x15d;" horiz-adv-x="289" 
d="M119 682h52l79 -135h-57l-47 86h-2l-46 -86h-58zM22 22l19 58c17 -11 47 -25 78 -25c44 0 71 27 71 70c0 37 -13 62 -62 95c-63 41 -97 82 -97 138c0 78 58 134 133 134c38 0 67 -13 87 -25l-21 -58c-18 12 -39 21 -64 21c-42 0 -63 -30 -63 -61c0 -33 12 -51 60 -84
c56 -36 100 -80 100 -147c0 -97 -66 -144 -145 -144c-36 0 -75 11 -96 28z" />
    <glyph glyph-name="scommaaccent" unicode="&#x219;" horiz-adv-x="289" 
d="M22 22l19 58c17 -11 47 -25 78 -25c44 0 71 27 71 70c0 37 -13 62 -62 95c-63 41 -97 82 -97 138c0 78 58 134 133 134c38 0 67 -13 87 -25l-21 -58c-18 12 -39 21 -64 21c-42 0 -63 -30 -63 -61c0 -33 12 -51 60 -84c56 -36 100 -80 100 -147c0 -97 -66 -144 -145 -144
c-36 0 -75 11 -96 28zM90 -214l-17 37c30 9 64 28 64 63c0 25 -16 47 -33 61l62 11c17 -11 34 -37 34 -70c0 -63 -54 -93 -110 -102z" />
    <glyph glyph-name="tcaron" unicode="&#x165;" horiz-adv-x="265" 
d="M71 566l77 31v-113h93v-59h-93v-287c0 -63 23 -80 51 -80c12 0 22 1 31 3l3 -59c-14 -5 -32 -8 -57 -8c-30 0 -57 8 -76 29c-19 22 -29 55 -29 122v280h-59v59h59v82zM263 536l-37 20c14 18 29 49 29 82c0 28 -14 50 -30 62l59 11c17 -11 34 -33 34 -66
c0 -54 -38 -92 -55 -109z" />
    <glyph glyph-name="tcommaaccent" unicode="&#x163;" horiz-adv-x="255" 
d="M71 566l77 31v-113h93v-59h-93v-287c0 -63 23 -80 51 -80c12 0 22 1 31 3l3 -59c-14 -5 -32 -8 -57 -8c-30 0 -57 8 -76 29c-19 22 -29 55 -29 122v280h-59v59h59v82zM86 -214l-17 37c30 9 64 28 64 63c0 25 -16 47 -33 61l62 11c17 -11 34 -37 34 -70
c0 -63 -54 -93 -110 -102z" />
    <glyph glyph-name="ubreve" unicode="&#x16d;" horiz-adv-x="398" 
d="M93 669h43c3 -37 28 -62 62 -62c39 0 63 26 64 62h43c2 -66 -40 -113 -107 -113c-68 0 -107 50 -105 113zM344 484v-352c0 -54 3 -96 4 -132h-67l-5 51h-2c-15 -24 -52 -59 -104 -59c-85 0 -118 66 -118 186v306h77v-295c0 -76 12 -132 65 -132c45 0 65 42 69 64
c3 13 4 28 4 44v319h77z" />
    <glyph glyph-name="uhungarumlaut" unicode="&#x171;" horiz-adv-x="398" 
d="M188 682h70l-104 -135h-44zM312 682h70l-104 -135h-44zM344 484v-352c0 -54 3 -96 4 -132h-67l-5 51h-2c-15 -24 -52 -59 -104 -59c-85 0 -118 66 -118 186v306h77v-295c0 -76 12 -132 65 -132c45 0 65 42 69 64c3 13 4 28 4 44v319h77z" />
    <glyph glyph-name="umacron" unicode="&#x16b;" horiz-adv-x="398" 
d="M99 631h197v-50h-197v50zM344 484v-352c0 -54 3 -96 4 -132h-67l-5 51h-2c-15 -24 -52 -59 -104 -59c-85 0 -118 66 -118 186v306h77v-295c0 -76 12 -132 65 -132c45 0 65 42 69 64c3 13 4 28 4 44v319h77z" />
    <glyph glyph-name="uogonek" unicode="&#x173;" horiz-adv-x="398" 
d="M344 484v-352c0 -54 3 -100 7 -132h-16c-16 -22 -41 -65 -41 -103c0 -30 21 -46 42 -46c19 0 33 4 42 9l11 -43c-23 -17 -49 -22 -72 -22c-51 0 -84 31 -84 83c0 50 32 97 48 122l-5 51h-2c-15 -24 -52 -59 -104 -59c-85 0 -118 66 -118 186v306h77v-295
c0 -76 12 -132 65 -132c45 0 65 42 69 64c3 13 4 28 4 44v319h77z" />
    <glyph glyph-name="uring" unicode="&#x16f;" horiz-adv-x="398" 
d="M200 533c-57 0 -93 38 -93 85c0 49 34 89 94 89c55 0 91 -39 91 -88s-39 -86 -92 -86zM199 568c31 0 48 24 48 52c0 27 -16 52 -49 52c-29 0 -45 -27 -45 -54c0 -24 17 -50 46 -50zM344 484v-352c0 -54 3 -96 4 -132h-67l-5 51h-2c-15 -24 -52 -59 -104 -59
c-85 0 -118 66 -118 186v306h77v-295c0 -76 12 -132 65 -132c45 0 65 42 69 64c3 13 4 28 4 44v319h77z" />
    <glyph glyph-name="utilde" unicode="&#x169;" horiz-adv-x="398" 
d="M133 561h-42c-1 53 20 94 61 94c21 0 35 -9 49 -17c15 -9 26 -17 40 -17c15 0 23 7 25 36h41c0 -55 -20 -90 -63 -90c-18 0 -35 9 -49 17s-25 17 -37 17c-15 0 -23 -14 -25 -40zM344 484v-352c0 -54 3 -96 4 -132h-67l-5 51h-2c-15 -24 -52 -59 -104 -59
c-85 0 -118 66 -118 186v306h77v-295c0 -76 12 -132 65 -132c45 0 65 42 69 64c3 13 4 28 4 44v319h77z" />
    <glyph glyph-name="wacute" unicode="&#x1e83;" horiz-adv-x="566" 
d="M328 682h79l-105 -135h-51zM13 484h80l47 -237c9 -52 20 -104 26 -154h4c7 50 19 106 30 152l56 239h59l53 -232c12 -54 23 -105 31 -159h4c6 51 15 101 26 156l46 235h77l-122 -484h-63l-56 235c-12 47 -19 90 -27 145h-2c-8 -57 -17 -102 -28 -148l-58 -232h-65z" />
    <glyph glyph-name="wcircumflex" unicode="&#x175;" horiz-adv-x="566" 
d="M257 682h52l79 -135h-57l-47 86h-2l-46 -86h-58zM13 484h80l47 -237c9 -52 20 -104 26 -154h4c7 50 19 106 30 152l56 239h59l53 -232c12 -54 23 -105 31 -159h4c6 51 15 101 26 156l46 235h77l-122 -484h-63l-56 235c-12 47 -19 90 -27 145h-2c-8 -57 -17 -102 -28 -148
l-58 -232h-65z" />
    <glyph glyph-name="wdieresis" unicode="&#x1e85;" horiz-adv-x="566" 
d="M206 566h-1c-24 0 -44 19 -44 44c0 26 20 45 45 45c24 0 42 -18 42 -45c0 -25 -18 -44 -42 -44zM361 566h-1c-24 0 -43 19 -43 44c0 26 20 45 44 45s43 -18 43 -45c0 -25 -18 -44 -43 -44zM13 484h80l47 -237c9 -52 20 -104 26 -154h4c7 50 19 106 30 152l56 239h59
l53 -232c12 -54 23 -105 31 -159h4c6 51 15 101 26 156l46 235h77l-122 -484h-63l-56 235c-12 47 -19 90 -27 145h-2c-8 -57 -17 -102 -28 -148l-58 -232h-65z" />
    <glyph glyph-name="wgrave" unicode="&#x1e81;" horiz-adv-x="566" 
d="M167 682h79l77 -135h-51zM13 484h80l47 -237c9 -52 20 -104 26 -154h4c7 50 19 106 30 152l56 239h59l53 -232c12 -54 23 -105 31 -159h4c6 51 15 101 26 156l46 235h77l-122 -484h-63l-56 235c-12 47 -19 90 -27 145h-2c-8 -57 -17 -102 -28 -148l-58 -232h-65z" />
    <glyph glyph-name="ycircumflex" unicode="&#x177;" horiz-adv-x="346" 
d="M148 682h52l79 -135h-57l-47 86h-2l-46 -86h-58zM13 484h81l64 -278c9 -38 14 -70 20 -100h2c5 27 13 64 21 99l57 279h76l-79 -311c-30 -122 -63 -239 -120 -312c-34 -43 -70 -66 -87 -74l-28 66c22 12 46 33 68 61c20 25 36 58 44 81c4 12 5 17 5 24c0 6 0 12 -2 18z
" />
    <glyph glyph-name="ygrave" unicode="&#x1ef3;" horiz-adv-x="346" 
d="M62 682h79l77 -135h-51zM13 484h81l64 -278c9 -38 14 -70 20 -100h2c5 27 13 64 21 99l57 279h76l-79 -311c-30 -122 -63 -239 -120 -312c-34 -43 -70 -66 -87 -74l-28 66c22 12 46 33 68 61c20 25 36 58 44 81c4 12 5 17 5 24c0 6 0 12 -2 18z" />
    <glyph glyph-name="uni0233" unicode="&#x233;" horiz-adv-x="346" 
d="M75 631h197v-50h-197v50zM13 484h81l64 -278c9 -38 14 -70 20 -100h2c5 27 13 64 21 99l57 279h76l-79 -311c-30 -122 -63 -239 -120 -312c-34 -43 -70 -66 -87 -74l-28 66c22 12 46 33 68 61c20 25 36 58 44 81c4 12 5 17 5 24c0 6 0 12 -2 18z" />
    <glyph glyph-name="zacute" unicode="&#x17a;" horiz-adv-x="313" 
d="M207 682h79l-105 -135h-51zM16 0v47l153 299c13 25 28 50 39 72v2h-173v64h258v-51l-151 -295c-13 -25 -28 -50 -39 -72v-2h190v-64h-277z" />
    <glyph glyph-name="zdotaccent" unicode="&#x17c;" horiz-adv-x="313" 
d="M161 566h-1c-24 0 -43 19 -43 44c0 26 20 45 44 45s43 -18 43 -45c0 -25 -18 -44 -43 -44zM16 0v47l153 299c13 25 28 50 39 72v2h-173v64h258v-51l-151 -295c-13 -25 -28 -50 -39 -72v-2h190v-64h-277z" />
    <glyph glyph-name="aeacute" unicode="&#x1fd;" horiz-adv-x="561" 
d="M331 682h79l-105 -135h-51zM531 241h-224c0 -149 50 -188 113 -188c34 0 61 9 82 21l13 -55c-34 -22 -75 -27 -111 -27c-57 0 -114 32 -133 93h-2c-21 -57 -65 -93 -124 -93c-68 0 -119 55 -119 140c0 117 96 170 207 170v27c0 58 -24 102 -81 102c-29 0 -58 -11 -78 -25
l-17 53c25 17 68 33 111 33c50 0 97 -26 111 -87h2c22 55 67 87 118 87c94 0 133 -106 133 -214c0 -12 -1 -24 -1 -37zM234 154v95c-41 0 -136 -9 -136 -112c0 -60 32 -84 63 -84c32 0 62 26 70 73c3 9 3 19 3 28zM308 296h150c3 93 -33 137 -69 137c-52 0 -79 -70 -81 -137
z" />
    <glyph glyph-name="space_uni0326" unicode="&#xf6c3;" 
d="M103 -214l-17 37c30 9 64 28 64 63c0 25 -16 47 -33 61l62 11c17 -11 34 -37 34 -70c0 -63 -54 -93 -110 -102z" />
    <glyph glyph-name="acute.cap" unicode="&#xf6c9;" 
d="M202 818h91l-124 -108h-61z" />
    <glyph glyph-name="breve.cap" unicode="&#xefee;" 
d="M43 811h45c5 -27 28 -43 61 -43s56 14 62 43h45c0 -57 -40 -96 -106 -96s-107 36 -107 96z" />
    <glyph glyph-name="caron.cap" unicode="&#xf6ca;" 
d="M182 710h-66l-87 98h67l52 -58h2l52 58h66z" />
    <glyph glyph-name="cedilla.cap" unicode="&#xeff2;" 
d="M144 5h48l-28 -55c33 -5 65 -33 65 -71c0 -57 -47 -79 -91 -79c-25 0 -49 8 -67 18l16 42c16 -10 31 -15 50 -15c18 0 36 7 36 31c0 27 -32 39 -69 43z" />
    <glyph glyph-name="circumflex.cap" unicode="&#xeff7;" 
d="M116 808h67l87 -98h-68l-52 55h-2l-51 -55h-67z" />
    <glyph glyph-name="space_uni0326.cap" unicode="&#xf634;" 
d="M103 -214l-17 37c30 9 64 28 64 63c0 25 -16 47 -33 61l62 11c17 -11 34 -37 34 -70c0 -63 -54 -93 -110 -102z" />
    <glyph glyph-name="dieresis.cap" unicode="&#xf6cb;" 
d="M69 725h-1c-24 0 -42 18 -42 46c0 27 19 47 43 47c26 0 43 -20 43 -47c0 -28 -17 -46 -43 -46zM231 725h-1c-24 0 -43 18 -43 46c0 27 19 47 44 47c26 0 43 -20 43 -47c0 -28 -17 -46 -43 -46z" />
    <glyph glyph-name="dotaccent.cap" unicode="&#xefed;" 
d="M151 727h-1c-24 0 -44 20 -44 45s20 44 45 44s44 -19 44 -44s-19 -45 -44 -45z" />
    <glyph glyph-name="grave.cap" unicode="&#xf6ce;" 
d="M15 818h91l95 -108h-61z" />
    <glyph glyph-name="hungarumlaut.cap" unicode="&#xf6cf;" 
d="M100 818h81l-100 -99h-53zM227 818h81l-100 -99h-53z" />
    <glyph glyph-name="macron.cap" unicode="&#xf6d0;" 
d="M44 788h213v-53h-213v53z" />
    <glyph glyph-name="ogonek.cap" unicode="&#xeff1;" 
d="M123 5h54c-16 -24 -44 -69 -44 -102c0 -31 21 -46 41 -46c17 0 31 3 43 9l11 -43c-21 -16 -49 -22 -72 -22c-51 0 -84 31 -84 81c0 52 33 100 51 123z" />
    <glyph glyph-name="ring.cap" unicode="&#xeff3;" horiz-adv-x="400" 
d="M203 869h1c58 0 92 -40 92 -88c0 -47 -37 -87 -93 -87c-59 0 -94 40 -94 86c0 47 36 89 94 89zM202 833h-1c-29 0 -44 -26 -44 -53c0 -23 17 -49 45 -49c29 0 46 24 46 51s-17 51 -46 51z" />
    <glyph glyph-name="tilde.cap" unicode="&#xeff5;" 
d="M85 718h-42c0 56 22 94 60 94c19 0 34 -9 47 -17c15 -9 26 -18 39 -18c17 0 24 9 27 36h40c1 -56 -17 -90 -62 -90c-19 0 -36 9 -49 17c-13 9 -24 17 -36 17c-15 0 -22 -13 -24 -39z" />
    <glyph glyph-name="Alpha" unicode="&#x391;" horiz-adv-x="435" 
d="M290 202h-149l-45 -202h-74l154 674h85l150 -674h-76zM152 264h128l-35 171c-10 48 -19 104 -27 154h-4c-8 -51 -18 -109 -27 -154z" />
    <glyph glyph-name="Beta" unicode="&#x392;" horiz-adv-x="416" 
d="M60 3v661c32 8 70 13 113 13c61 0 113 -13 149 -47c29 -27 44 -67 44 -115c0 -69 -38 -124 -104 -150v-2c78 -21 125 -84 125 -172c0 -56 -18 -101 -48 -134c-38 -43 -101 -61 -178 -61c-50 0 -80 3 -101 7zM137 612v-224h35c63 0 117 48 117 119c0 62 -29 110 -111 110
c-18 0 -32 -2 -41 -5zM137 329v-268c9 -2 22 -4 39 -4c80 0 132 47 132 134c0 93 -65 137 -137 138h-34z" />
    <glyph glyph-name="Gamma" unicode="&#x393;" horiz-adv-x="331" 
d="M60 674h258v-65h-181v-609h-77v674z" />
    <glyph glyph-name="uni0394" unicode="&#x394;" horiz-adv-x="436" 
d="M24 0v44l153 630h85l151 -629v-45h-389zM101 68h234l-83 349c-12 54 -25 122 -33 172h-3c-8 -51 -21 -116 -33 -170z" />
    <glyph glyph-name="Epsilon" unicode="&#x395;" horiz-adv-x="354" 
d="M306 385v-65h-169v-253h192v-67h-269v674h257v-67h-180v-222h169z" />
    <glyph glyph-name="Zeta" unicode="&#x396;" horiz-adv-x="358" 
d="M20 0v46l231 559v3h-212v66h298v-52l-227 -553v-3h226v-66h-316z" />
    <glyph glyph-name="Eta" unicode="&#x397;" horiz-adv-x="463" 
d="M60 674h77v-289h189v289h77v-674h-77v315h-189v-315h-77v674z" />
    <glyph glyph-name="Theta" unicode="&#x398;" horiz-adv-x="449" 
d="M221 -8h-1c-112 0 -188 119 -188 346c0 223 81 344 199 344c116 0 186 -125 186 -340c0 -253 -87 -350 -196 -350zM225 59h1c88 0 112 147 112 280c0 127 -24 276 -113 276c-88 0 -114 -148 -114 -277c0 -132 26 -279 114 -279zM150 382h149v-70h-149v70z" />
    <glyph glyph-name="Iota" unicode="&#x399;" horiz-adv-x="199" 
d="M60 674h77v-674h-77v674z" />
    <glyph glyph-name="Kappa" unicode="&#x39a;" horiz-adv-x="404" 
d="M60 0v674h77v-320h2c15 28 29 55 42 81l126 239h85l-165 -288l169 -386h-83l-138 325l-38 -65v-260h-77z" />
    <glyph glyph-name="Lambda" unicode="&#x39b;" horiz-adv-x="434" 
d="M412 0h-79l-87 405c-11 58 -21 114 -30 175h-4c-8 -62 -17 -119 -28 -176l-85 -404h-78l155 674h81z" />
    <glyph glyph-name="Mu" unicode="&#x39c;" horiz-adv-x="599" 
d="M482 0l-14 290c-5 89 -10 188 -7 264h-4c-15 -75 -33 -155 -54 -234l-83 -316h-49l-79 303c-22 86 -42 169 -55 247h-3c0 -79 -4 -173 -8 -269l-13 -285h-69l40 674h83l79 -308c23 -89 40 -155 54 -232h3c13 77 28 141 50 232l76 308h86l39 -674h-72z" />
    <glyph glyph-name="Nu" unicode="&#x39d;" horiz-adv-x="465" 
d="M130 0h-70v674h73l124 -316c28 -72 63 -162 86 -235h2c-6 106 -9 193 -9 310v241h69v-674h-73l-128 324c-27 68 -56 145 -80 229h-2c6 -90 8 -176 8 -320v-233z" />
    <glyph glyph-name="Xi" unicode="&#x39e;" horiz-adv-x="362" 
d="M35 674h291v-67h-291v67zM53 383h254v-66h-254v66zM29 67h304v-67h-304v67z" />
    <glyph glyph-name="Omicron" unicode="&#x39f;" horiz-adv-x="446" 
d="M220 -8h-1c-112 0 -187 119 -187 346c0 223 80 344 198 344c115 0 184 -125 184 -340c0 -253 -87 -350 -194 -350zM223 60h1c87 0 110 147 110 279c0 126 -23 275 -111 275c-87 0 -112 -148 -111 -276c-1 -131 24 -278 111 -278z" />
    <glyph glyph-name="Pi" unicode="&#x3a0;" horiz-adv-x="451" 
d="M391 674v-674h-77v604h-177v-604h-77v674h331z" />
    <glyph glyph-name="Rho" unicode="&#x3a1;" horiz-adv-x="399" 
d="M60 0v664c31 8 68 13 112 13c62 0 114 -15 149 -50c33 -32 50 -81 50 -139c0 -62 -15 -104 -41 -138c-37 -50 -99 -75 -159 -75c-14 0 -23 0 -34 1v-276h-77zM137 609v-268c9 -2 17 -3 30 -3c76 0 127 50 127 145c0 69 -29 131 -114 131c-18 0 -33 -2 -43 -5z" />
    <glyph glyph-name="Sigma" unicode="&#x3a3;" horiz-adv-x="407" 
d="M106 71v-4h272v-67h-362v51l173 285l-163 287v51h330v-66h-236v-4l149 -264z" />
    <glyph glyph-name="Tau" unicode="&#x3a4;" horiz-adv-x="354" 
d="M139 0v605h-123v69h323v-69h-123v-605h-77z" />
    <glyph glyph-name="Upsilon" unicode="&#x3a5;" horiz-adv-x="425" 
d="M6 615l16 65c11 -1 50 -15 79 -42c54 -50 101 -151 111 -284h4c13 127 64 218 109 267c33 36 72 56 82 59l16 -67c-67 -35 -138 -144 -165 -316c-6 -37 -10 -75 -10 -118v-179h-77v179c0 42 -2 81 -6 116c-24 185 -84 288 -159 320z" />
    <glyph glyph-name="Phi" unicode="&#x3a6;" horiz-adv-x="504" 
d="M287 37v-50h-71v50c-87 14 -186 94 -186 301c0 197 97 290 187 302v47h71v-47c103 -12 186 -119 186 -298c0 -205 -94 -294 -187 -305zM217 95v487c-56 -10 -109 -92 -109 -247c0 -139 50 -222 109 -240zM287 582v-487c65 13 109 99 109 247c0 153 -59 232 -109 240z" />
    <glyph glyph-name="Chi" unicode="&#x3a7;" horiz-adv-x="392" 
d="M378 0h-81l-61 162c-14 37 -26 72 -41 118h-3c-15 -45 -28 -84 -41 -120l-58 -160h-79l139 344l-134 330h80l60 -156c13 -31 24 -63 40 -107h2c15 47 25 77 36 110l56 153h78l-132 -328z" />
    <glyph glyph-name="Psi" unicode="&#x3a8;" horiz-adv-x="515" 
d="M472 674v-187c0 -169 -63 -256 -179 -273v-214h-71v214c-117 17 -179 95 -179 256v204h72v-200c0 -127 34 -189 108 -199v399h69v-399c74 9 108 78 108 215v184h72z" />
    <glyph glyph-name="uni03A9" unicode="&#x3a9;" horiz-adv-x="472" 
d="M340 69v-3h99v-66h-177v52c58 63 90 188 89 307c0 114 -27 255 -115 255c-87 0 -116 -139 -116 -252c0 -112 38 -253 89 -310v-52h-177v66h99v3c-49 69 -91 179 -91 304c0 195 86 309 203 309c116 0 188 -120 188 -304c0 -131 -42 -244 -91 -309z" />
    <glyph glyph-name="Alphatonos" unicode="&#x386;" horiz-adv-x="444" 
d="M299 202h-149l-45 -202h-74l154 674h85l150 -674h-76zM161 264h128l-35 171c-10 48 -19 104 -27 154h-4c-8 -51 -18 -109 -27 -154zM44 674h66l-29 -148h-41z" />
    <glyph glyph-name="Epsilontonos" unicode="&#x388;" horiz-adv-x="406" 
d="M358 385v-65h-169v-253h192v-67h-269v674h257v-67h-180v-222h169zM4 674h66l-29 -148h-41z" />
    <glyph glyph-name="Etatonos" unicode="&#x389;" horiz-adv-x="515" 
d="M112 674h77v-289h189v289h77v-674h-77v315h-189v-315h-77v674zM4 674h66l-29 -148h-41z" />
    <glyph glyph-name="Iotatonos" unicode="&#x38a;" horiz-adv-x="249" 
d="M112 674h77v-674h-77v674zM4 674h66l-29 -148h-41z" />
    <glyph glyph-name="Iotadieresis" unicode="&#x3aa;" horiz-adv-x="199" 
d="M23 710h-1c-24 0 -43 19 -43 44c0 26 19 44 44 44c23 0 42 -18 42 -44c0 -25 -18 -44 -42 -44zM177 710h-1c-23 0 -43 19 -43 44c0 26 20 44 44 44s42 -18 42 -44c0 -25 -18 -44 -42 -44zM60 674h77v-674h-77v674z" />
    <glyph glyph-name="Omicrontonos" unicode="&#x38c;" horiz-adv-x="482" 
d="M256 -8h-1c-112 0 -187 119 -187 346c0 223 81 344 198 344c115 0 184 -125 184 -340c0 -253 -86 -350 -194 -350zM260 60h1c87 0 109 147 109 279c0 126 -23 275 -110 275s-112 -148 -112 -276c-1 -131 25 -278 112 -278zM4 674h66l-29 -148h-41z" />
    <glyph glyph-name="Upsilontonos" unicode="&#x38e;" horiz-adv-x="514" 
d="M96 615l15 65c12 -1 50 -15 79 -42c55 -50 101 -151 112 -284h3c14 127 64 218 109 267c33 36 72 56 82 59l17 -67c-67 -35 -139 -144 -166 -316c-5 -37 -10 -75 -10 -118v-179h-76v179c0 42 -3 81 -7 116c-24 185 -83 288 -158 320zM4 674h66l-29 -148h-41z" />
    <glyph glyph-name="Upsilondieresis" unicode="&#x3ab;" horiz-adv-x="425" 
d="M141 697h-1c-24 0 -43 19 -43 44c0 26 20 44 44 44s42 -18 42 -44c0 -25 -18 -44 -42 -44zM296 697h-1c-24 0 -43 19 -43 44c0 26 19 44 44 44c23 0 42 -18 42 -44c0 -25 -18 -44 -42 -44zM6 615l16 65c11 -1 50 -15 79 -42c54 -50 101 -151 111 -284h4
c13 127 64 218 109 267c33 36 72 56 82 59l16 -67c-67 -35 -138 -144 -165 -316c-6 -37 -10 -75 -10 -118v-179h-77v179c0 42 -2 81 -6 116c-24 185 -84 288 -159 320z" />
    <glyph glyph-name="Omegatonos" unicode="&#x38f;" horiz-adv-x="504" 
d="M372 69v-3h99v-66h-177v52c57 63 90 188 89 307c-1 114 -27 255 -115 255c-87 0 -116 -139 -116 -252c0 -112 38 -253 89 -310v-52h-177v66h99v3c-50 69 -91 179 -91 304c0 195 85 309 202 309s189 -120 189 -304c0 -131 -42 -244 -91 -309zM4 674h66l-29 -148h-41z" />
    <glyph glyph-name="alpha" unicode="&#x3b1;" horiz-adv-x="397" 
d="M291 484h59c-5 -28 -12 -198 -11 -380c0 -33 8 -53 32 -53l-8 -57c-7 -2 -13 -2 -19 -2c-32 0 -60 18 -64 79h-4c-13 -35 -46 -79 -103 -79c-83 0 -140 89 -140 238c0 172 82 262 154 262c37 0 70 -17 90 -72h4c3 26 6 45 10 64zM110 233v-1c0 -91 29 -176 78 -176
c34 0 64 44 74 107c3 28 4 56 4 81c0 31 0 49 -2 73c-3 61 -32 110 -68 110c-54 0 -86 -91 -86 -194z" />
    <glyph glyph-name="beta" unicode="&#x3b2;" horiz-adv-x="404" 
d="M130 28h-2v-66c0 -61 3 -121 9 -154h-70c-9 24 -14 70 -14 139v518c0 97 15 152 51 192c28 31 60 43 99 43c92 0 134 -85 134 -168c0 -86 -42 -133 -80 -154v-4c51 -16 114 -66 114 -185c0 -125 -69 -197 -152 -197c-38 0 -70 15 -89 36zM128 481v-376
c24 -40 55 -49 79 -49c56 0 88 62 88 134c0 87 -43 140 -105 147c-6 1 -11 1 -15 1v60c5 0 9 1 14 2c41 11 74 50 74 128c0 42 -17 108 -63 108c-51 0 -72 -63 -72 -155z" />
    <glyph glyph-name="gamma" unicode="&#x3b3;" horiz-adv-x="339" 
d="M199 -192h-74c4 144 1 226 -24 331c-33 145 -74 270 -106 345h81c28 -73 73 -223 95 -372h3c33 94 70 232 70 332c0 14 -1 27 0 40h70c1 -7 2 -19 2 -34c0 -110 -46 -264 -114 -412c-4 -9 -5 -15 -5 -23c2 -64 3 -136 2 -207z" />
    <glyph glyph-name="delta" unicode="&#x3b4;" horiz-adv-x="390" 
d="M338 658l-23 -51c-18 12 -52 32 -92 32c-33 0 -50 -19 -50 -40c0 -22 17 -46 45 -83l59 -75c41 -53 79 -123 79 -210c0 -152 -72 -239 -163 -239c-89 0 -160 84 -160 230c0 123 69 204 130 245v4l-13 16c-18 24 -53 72 -53 112c0 46 37 101 124 101c53 0 93 -20 117 -42z
M225 391l-24 32c-59 -44 -91 -109 -91 -202c0 -113 45 -168 86 -168c54 0 83 71 83 167c0 77 -21 128 -54 171z" />
    <glyph glyph-name="epsilon" unicode="&#x3b5;" horiz-adv-x="324" 
d="M133 260v4c-46 13 -78 50 -78 102c0 65 55 126 151 126c37 0 71 -9 88 -23l-15 -55c-15 8 -38 16 -70 16c-52 0 -79 -34 -79 -69c0 -54 55 -73 109 -73h15v-57h-19c-66 -1 -124 -26 -124 -90c0 -56 43 -87 95 -87c40 0 78 13 90 20l10 -58c-27 -16 -72 -24 -114 -24
c-83 0 -160 42 -160 143c0 68 51 115 101 125z" />
    <glyph glyph-name="zeta" unicode="&#x3b6;" horiz-adv-x="314" 
d="M250 -130l-54 16c23 39 34 81 36 102c-26 6 -53 14 -86 30c-59 27 -113 84 -113 199c0 145 82 307 188 406v4h-46c-34 0 -69 1 -90 8l9 55c25 -2 65 -2 100 -3h110l14 -53c-101 -69 -207 -247 -207 -398c0 -105 38 -145 92 -168c29 -13 68 -22 97 -28c5 -1 8 -5 8 -12
c0 -56 -30 -125 -58 -158z" />
    <glyph glyph-name="eta" unicode="&#x3b7;" horiz-adv-x="405" 
d="M121 426h2c21 39 60 66 111 66c67 0 117 -50 117 -167v-363c0 -61 2 -121 8 -154h-71c-9 24 -14 70 -14 140v364c0 57 -11 115 -67 115c-32 0 -63 -27 -73 -79c-2 -12 -3 -27 -3 -43v-305h-77v359c0 50 -5 99 -13 125h67c6 -14 11 -37 13 -58z" />
    <glyph glyph-name="theta" unicode="&#x3b8;" horiz-adv-x="382" 
d="M190 -8h-1c-85 0 -156 79 -156 361c0 261 84 347 161 347c84 0 155 -88 155 -347c0 -301 -80 -361 -159 -361zM107 387h168c0 152 -31 253 -85 253c-47 0 -83 -101 -83 -253zM275 325h-168c1 -178 32 -273 85 -273c58 0 83 103 83 273z" />
    <glyph glyph-name="iota" unicode="&#x3b9;" horiz-adv-x="188" 
d="M131 484v-383c0 -38 9 -49 36 -49l-6 -57c-10 -2 -20 -3 -29 -3c-38 0 -78 15 -78 104v388h77z" />
    <glyph glyph-name="kappa" unicode="&#x3ba;" horiz-adv-x="370" 
d="M201 262v-3c44 -17 77 -92 104 -149l54 -110h-85l-51 111c-25 56 -54 110 -84 110h-8v-221h-76v368c0 56 -4 96 -10 116h73c8 -12 13 -37 13 -83v-135h3c52 76 109 173 139 218h83v-3c-43 -61 -89 -126 -155 -219z" />
    <glyph glyph-name="lambda" unicode="&#x3bb;" horiz-adv-x="337" 
d="M250 0l-58 259c-7 32 -13 62 -23 114h-3c-7 -39 -13 -72 -22 -112l-61 -261h-76l121 452c2 8 2 15 2 22c0 6 -1 17 -4 27c-25 98 -57 129 -92 129c-3 0 -6 0 -11 -1l7 64c6 1 16 2 24 2c86 0 119 -87 150 -206l123 -489h-77z" />
    <glyph glyph-name="uni03BC" unicode="&#x3bc;" horiz-adv-x="399" 
d="M281 50h-2c-11 -21 -44 -53 -84 -53c-28 0 -52 7 -68 36v-71c0 -61 3 -121 9 -154h-70c-8 24 -13 73 -13 146v530h77v-319c0 -58 13 -109 64 -109c47 0 66 42 71 65c3 12 4 28 4 44v319h76v-380c0 -35 7 -55 31 -54l-8 -55c-7 -2 -15 -3 -25 -3c-29 0 -53 15 -62 58z" />
    <glyph glyph-name="nu" unicode="&#x3bd;" horiz-adv-x="333" 
d="M6 484h78l56 -272c6 -33 13 -76 21 -122h3c27 85 75 261 75 361c0 9 1 23 0 33h70c1 -8 2 -21 2 -31c0 -116 -66 -307 -124 -453h-69z" />
    <glyph glyph-name="xi" unicode="&#x3be;" horiz-adv-x="328" 
d="M278 414v-60h-17c-86 -4 -150 -57 -150 -144c0 -83 50 -123 107 -144c25 -9 54 -18 94 -26c8 -1 10 -5 10 -12c0 -54 -31 -124 -57 -157l-55 15c23 39 33 82 36 102c-113 27 -213 77 -213 212c0 93 53 159 128 188v5c-57 26 -90 80 -90 141c0 96 65 166 165 166
c35 0 61 -8 80 -19l-14 -57c-12 5 -32 14 -63 14c-68 0 -92 -60 -92 -104c0 -73 53 -113 115 -119c5 0 11 -1 16 -1z" />
    <glyph glyph-name="omicron" unicode="&#x3bf;" horiz-adv-x="383" 
d="M191 -8h-1c-87 0 -157 79 -157 249c0 177 79 251 162 251c86 0 156 -81 156 -250c0 -187 -87 -250 -160 -250zM193 53h1c66 0 79 114 79 189c0 74 -13 188 -81 188c-69 0 -82 -114 -82 -188c0 -80 14 -189 83 -189z" />
    <glyph glyph-name="rho" unicode="&#x3c1;" horiz-adv-x="395" 
d="M129 39h-2v-77c0 -61 2 -121 6 -154h-71c-8 24 -12 70 -12 138v298c0 114 24 166 53 198c27 34 67 50 101 50c100 0 159 -90 159 -249c0 -177 -75 -251 -153 -251c-40 0 -68 23 -81 47zM127 264v-96c0 -13 0 -27 4 -38c14 -61 47 -74 66 -74c66 0 88 94 88 189
c0 96 -22 180 -82 180c-39 0 -76 -43 -76 -161z" />
    <glyph glyph-name="sigma" unicode="&#x3c3;" horiz-adv-x="383" 
d="M286 436l-1 -3c45 -44 61 -125 61 -191c0 -186 -87 -250 -157 -250c-86 0 -156 79 -156 249c0 177 79 251 164 251h38h37h99l-4 -60c-18 -1 -47 0 -81 4zM191 53h1c64 0 77 114 77 189c0 74 -16 188 -79 188c-67 0 -80 -114 -80 -188c0 -80 15 -189 81 -189z" />
    <glyph glyph-name="tau" unicode="&#x3c4;" horiz-adv-x="304" 
d="M243 54l-3 -57c-9 -3 -20 -5 -37 -5c-75 0 -92 64 -92 137v291h-42c-29 0 -46 -5 -57 -10l-12 50c8 10 38 24 88 24h212l-9 -64h-103v-294c0 -58 21 -73 38 -73c6 0 12 0 17 1z" />
    <glyph glyph-name="upsilon" unicode="&#x3c5;" horiz-adv-x="377" 
d="M237 484h73c16 -39 31 -112 31 -193c0 -155 -33 -299 -161 -299c-79 0 -131 53 -131 148v183c0 66 -1 131 -8 161h74c8 -14 10 -52 10 -98v-237c0 -63 28 -92 61 -92c60 0 79 87 79 217c0 91 -12 172 -28 210z" />
    <glyph glyph-name="phi" unicode="&#x3c6;" horiz-adv-x="491" 
d="M143 487l41 -37c-41 -44 -75 -113 -75 -205c0 -94 35 -172 101 -189v303c0 94 46 127 95 127c75 0 153 -84 153 -234c0 -166 -91 -243 -176 -254v-190h-72v190c-71 9 -177 67 -177 244c0 133 68 213 110 245zM281 371v-316c71 11 101 100 101 193c0 112 -44 178 -72 178
c-16 0 -29 -12 -29 -55z" />
    <glyph glyph-name="chi" unicode="&#x3c7;" horiz-adv-x="339" 
d="M11 484h78l83 -258h4c9 36 17 66 28 100l52 158h74l-122 -327l120 -342l-71 -18l-95 289h-2c-9 -39 -21 -82 -33 -121l-54 -168l-68 16l122 346z" />
    <glyph glyph-name="psi" unicode="&#x3c8;" horiz-adv-x="487" 
d="M210 -192v184c-74 10 -164 44 -164 227v148c0 47 0 89 -5 117h68c5 -14 8 -52 8 -98v-151c0 -136 39 -177 94 -186v536h71v-536c70 8 97 117 97 245c0 94 -13 166 -22 190h66c14 -32 28 -103 28 -180c0 -176 -45 -300 -168 -312v-184h-73z" />
    <glyph glyph-name="omega" unicode="&#x3c9;" horiz-adv-x="521" 
d="M296 333l-1 -191c0 -32 16 -85 51 -85c37 0 65 61 65 184c0 106 -32 192 -67 240v3h70c36 -35 74 -130 74 -243c0 -159 -58 -249 -139 -249c-45 0 -72 32 -87 70h-3c-14 -39 -46 -70 -95 -70c-67 0 -131 71 -131 240c0 123 42 218 74 252h69v-3
c-35 -46 -67 -128 -67 -244c0 -125 29 -180 65 -180s51 51 51 86l-1 190h72z" />
    <glyph glyph-name="uni03C2" unicode="&#x3c2;" horiz-adv-x="306" 
d="M294 479l-15 -61c-13 5 -29 8 -44 8c-85 0 -124 -97 -124 -186c0 -78 20 -138 90 -172c22 -10 47 -18 84 -29c5 -2 7 -5 7 -9c0 -58 -30 -127 -58 -160l-54 16c25 39 35 81 37 101c-25 8 -52 18 -71 27c-64 33 -113 106 -113 219c0 141 79 259 203 259c22 0 44 -5 58 -13
z" />
    <glyph glyph-name="alphatonos" unicode="&#x3ac;" horiz-adv-x="397" 
d="M208 675h67l-55 -135h-45zM291 484h59c-5 -28 -12 -198 -11 -380c0 -33 8 -53 32 -53l-8 -57c-7 -2 -13 -2 -19 -2c-32 0 -60 18 -64 79h-4c-13 -35 -46 -79 -103 -79c-83 0 -140 89 -140 238c0 172 82 262 154 262c37 0 70 -17 90 -72h4c3 26 6 45 10 64zM110 233v-1
c0 -91 29 -176 78 -176c34 0 64 44 74 107c3 28 4 56 4 81c0 31 0 49 -2 73c-3 61 -32 110 -68 110c-54 0 -86 -91 -86 -194z" />
    <glyph glyph-name="epsilontonos" unicode="&#x3ad;" horiz-adv-x="324" 
d="M187 675h68l-56 -135h-45zM133 259v5c-47 13 -78 49 -78 102c0 65 55 126 151 126c37 0 71 -9 88 -23l-15 -55c-15 8 -38 16 -70 16c-52 0 -79 -34 -79 -69c0 -54 55 -73 109 -73h15v-57h-19c-66 -1 -124 -26 -124 -90c0 -56 43 -87 95 -87c40 0 78 12 90 19l10 -57
c-27 -16 -72 -24 -114 -24c-83 0 -160 42 -160 143c0 68 51 114 101 124z" />
    <glyph glyph-name="etatonos" unicode="&#x3ae;" horiz-adv-x="405" 
d="M207 675h68l-56 -135h-45zM121 426h2c21 39 60 66 111 66c67 0 117 -50 117 -167v-363c0 -61 2 -121 8 -154h-71c-9 24 -14 70 -14 140v364c0 57 -11 115 -67 115c-32 0 -63 -27 -73 -79c-2 -12 -3 -27 -3 -43v-305h-77v359c0 50 -5 99 -13 125h67c6 -14 11 -37 13 -58z
" />
    <glyph glyph-name="iotatonos" unicode="&#x3af;" horiz-adv-x="188" 
d="M97 676h71l-56 -135h-48zM131 484v-383c0 -38 9 -49 36 -49l-6 -57c-10 -2 -20 -3 -29 -3c-38 0 -78 15 -78 104v388h77z" />
    <glyph glyph-name="iotadieresis" unicode="&#x3ca;" horiz-adv-x="188" 
d="M16 558h-1c-25 0 -44 19 -44 45s20 45 45 45c24 0 43 -18 43 -45c0 -26 -19 -45 -43 -45zM170 558h-1c-24 0 -43 19 -43 45s19 45 44 45s43 -18 43 -45c0 -26 -18 -45 -43 -45zM131 484v-383c0 -38 9 -49 37 -49l-7 -57c-9 -2 -20 -3 -29 -3c-38 0 -78 15 -78 104v388h77
z" />
    <glyph glyph-name="omicrontonos" unicode="&#x3cc;" horiz-adv-x="383" 
d="M194 675h68l-55 -135h-45zM191 -8h-1c-87 0 -157 79 -157 249c0 177 79 251 162 251c86 0 156 -81 156 -250c0 -187 -87 -250 -160 -250zM193 53h1c66 0 79 114 79 189c0 74 -13 188 -81 188c-69 0 -82 -114 -82 -188c0 -80 14 -189 83 -189z" />
    <glyph glyph-name="upsilontonos" unicode="&#x3cd;" horiz-adv-x="377" 
d="M188 676h70l-55 -135h-48zM237 484h73c16 -39 31 -112 31 -193c0 -155 -33 -299 -161 -299c-79 0 -131 53 -131 148v183c0 66 -1 131 -8 161h74c8 -14 10 -52 10 -98v-237c0 -63 28 -92 61 -92c60 0 79 87 79 217c0 91 -12 172 -28 210z" />
    <glyph glyph-name="upsilondieresis" unicode="&#x3cb;" horiz-adv-x="377" 
d="M104 558h-1c-25 0 -44 19 -44 45s20 45 45 45c24 0 42 -18 42 -45c0 -26 -18 -45 -42 -45zM258 558h-1c-24 0 -44 19 -44 45s20 45 45 45s43 -18 43 -45c0 -26 -18 -45 -43 -45zM237 484h73c16 -39 31 -112 31 -193c0 -155 -33 -299 -161 -299c-79 0 -131 53 -131 148
v183c0 66 -1 131 -8 161h74c8 -14 10 -52 10 -98v-237c0 -63 28 -92 61 -92c60 0 79 87 79 217c0 91 -12 172 -28 210z" />
    <glyph glyph-name="omegatonos" unicode="&#x3ce;" horiz-adv-x="521" 
d="M269 675h68l-55 -135h-45zM296 333l-1 -191c0 -32 16 -85 51 -85c37 0 66 61 66 184c0 106 -32 192 -67 240v3h70c35 -35 73 -130 73 -243c0 -159 -58 -249 -138 -249c-46 0 -73 32 -88 70h-3c-14 -39 -46 -70 -94 -70c-67 0 -132 71 -132 240c0 123 42 218 74 252h69v-3
c-35 -46 -67 -128 -67 -244c0 -125 30 -180 65 -180c36 0 51 51 51 86l-1 190h72z" />
    <glyph glyph-name="iotadieresistonos" unicode="&#x390;" horiz-adv-x="188" 
d="M131 484v-383c0 -38 9 -49 37 -49l-7 -57c-9 -2 -20 -3 -29 -3c-38 0 -78 15 -78 104v388h77zM84 683h63l-35 -145h-41zM5 562h-1c-22 0 -41 17 -41 40c0 24 19 40 42 40c20 0 38 -15 38 -40c0 -23 -17 -40 -38 -40zM202 562h-1c-20 0 -39 17 -39 40c0 24 19 40 40 40
c22 0 41 -15 41 -40c0 -23 -18 -40 -41 -40z" />
    <glyph glyph-name="upsilondieresistonos" unicode="&#x3b0;" horiz-adv-x="377" 
d="M237 484h73c16 -39 31 -112 31 -193c0 -155 -33 -299 -161 -299c-79 0 -131 53 -131 148v183c0 66 -1 131 -8 161h74c8 -14 10 -52 10 -98v-237c0 -63 28 -92 61 -92c60 0 79 87 79 217c0 91 -12 172 -28 210zM165 682h63l-35 -145h-41zM85 560h-1c-22 0 -42 17 -42 41
s20 40 43 40c20 0 38 -16 38 -40s-18 -41 -38 -41zM284 560h-1c-20 0 -39 17 -39 41s19 40 40 40c22 0 41 -16 41 -40s-18 -41 -41 -41z" />
    <glyph glyph-name="uni037E" unicode="&#x37e;" horiz-adv-x="200" 
d="M82 -119l-52 -7c17 58 41 164 45 233l86 5c-18 -76 -56 -186 -79 -231zM111 329h-1c-29 0 -51 24 -51 59s22 61 53 61s52 -24 52 -61c0 -35 -19 -59 -53 -59z" />
    <glyph glyph-name="anoteleia" unicode="&#x387;" horiz-adv-x="200" 
d="M100 257h-1c-30 0 -54 25 -54 63c0 36 25 63 55 63c33 0 55 -25 55 -63s-21 -63 -55 -63z" />
    <glyph glyph-name="tonos" unicode="&#x384;" horiz-adv-x="305" 
d="M108 683h68l-56 -135h-45z" />
    <glyph glyph-name="dieresistonos" unicode="&#x385;" horiz-adv-x="350" 
d="M153 692h65l-36 -147h-41zM73 568h-1c-23 0 -42 17 -42 41s20 40 43 40c20 0 38 -16 38 -40s-17 -41 -38 -41zM274 568h-1c-21 0 -40 17 -40 41s20 40 41 40c22 0 41 -16 41 -40s-18 -41 -41 -41z" />
    <glyph glyph-name="dieresis_acutecomb" unicode="&#xf6d7;" horiz-adv-x="301" 
d="M36 565h-1c-23 0 -42 19 -42 44s19 44 44 44c23 0 42 -18 42 -44c0 -25 -18 -44 -43 -44zM266 565h-1c-23 0 -42 19 -42 44s19 44 44 44c24 0 42 -18 42 -44c0 -25 -17 -44 -43 -44zM160 683h77l-105 -135h-49z" />
    <glyph glyph-name="dieresis_gravecomb" unicode="&#xf6d8;" 
d="M36 565h-1c-23 0 -42 19 -42 44s19 44 44 44c23 0 42 -18 42 -44c0 -25 -18 -44 -43 -44zM266 565h-1c-23 0 -42 19 -42 44s19 44 44 44c24 0 42 -18 42 -44c0 -25 -17 -44 -43 -44zM68 683h76l77 -135h-49z" />
    <glyph glyph-name="space_uni030F" unicode="&#xf6d6;" 
d="M-25 670h79l84 -131h-48zM112 670h79l84 -131h-48z" />
    <glyph glyph-name="dieresis_acutecomb.cap" unicode="&#xf6cc;" horiz-adv-x="301" 
d="M33 725h-1c-21 0 -39 18 -39 44s18 45 41 45c25 0 41 -19 41 -45s-16 -44 -42 -44zM272 725h-1c-21 0 -39 18 -39 44s18 45 41 45c25 0 41 -19 41 -45s-16 -44 -42 -44zM151 823h83l-106 -113h-57z" />
    <glyph glyph-name="dieresis_gravecomb.cap" unicode="&#xf6cd;" horiz-adv-x="301" 
d="M33 725h-1c-21 0 -39 18 -39 44s18 45 41 45c25 0 41 -19 41 -45s-17 -44 -42 -44zM272 725h-1c-21 0 -39 18 -39 44s18 45 41 45c25 0 41 -19 41 -45s-17 -44 -42 -44zM70 823h83l80 -113h-57z" />
    <glyph glyph-name="space_uni030F.cap" unicode="&#xf6d3;" 
d="M-32 822h86l98 -112h-56zM122 822h86l98 -112h-56z" />
    <glyph glyph-name="afii10017" unicode="&#x410;" horiz-adv-x="435" 
d="M290 202h-149l-45 -202h-74l154 674h85l150 -674h-76zM152 264h128l-35 171c-10 48 -19 104 -27 154h-4c-8 -51 -18 -109 -27 -154z" />
    <glyph glyph-name="afii10018" unicode="&#x411;" horiz-adv-x="418" 
d="M60 674h286v-67h-209v-202c17 3 34 4 51 4c59 0 109 -19 144 -53c36 -34 57 -84 57 -147c0 -61 -17 -110 -48 -145c-39 -45 -100 -68 -180 -68c-50 0 -80 3 -101 7v671zM137 342v-280c13 -3 25 -3 39 -3c46 0 81 17 103 46c20 26 31 60 31 100s-13 74 -36 99
s-57 41 -99 41c-12 0 -25 -1 -38 -3z" />
    <glyph glyph-name="afii10019" unicode="&#x412;" horiz-adv-x="416" 
d="M60 3v661c32 8 70 13 113 13c61 0 113 -13 149 -47c29 -27 44 -67 44 -115c0 -69 -38 -124 -104 -150v-2c78 -21 125 -84 125 -172c0 -56 -18 -101 -48 -134c-38 -43 -101 -61 -178 -61c-50 0 -80 3 -101 7zM137 612v-224h35c63 0 117 48 117 119c0 62 -29 110 -111 110
c-18 0 -32 -2 -41 -5zM137 329v-268c9 -2 22 -4 39 -4c80 0 132 47 132 134c0 93 -65 137 -137 138h-34z" />
    <glyph glyph-name="afii10020" unicode="&#x413;" horiz-adv-x="339" 
d="M60 674h264v-67h-187v-607h-77v674z" />
    <glyph glyph-name="afii10050" unicode="&#x490;" horiz-adv-x="334" 
d="M60 674h201l13 112h55l-10 -179h-182v-607h-77v674z" />
    <glyph glyph-name="afii10021" unicode="&#x414;" horiz-adv-x="474" 
d="M130 674h271v-608l45 -1l-4 -205h-60l-5 140h-298l-4 -140h-61l-4 205l45 1c25 61 43 121 54 182c16 87 21 176 21 274v152zM200 607v-101c0 -94 -4 -185 -18 -268c-11 -60 -28 -117 -48 -171h191v540h-125z" />
    <glyph glyph-name="afii10022" unicode="&#x415;" horiz-adv-x="354" 
d="M306 385v-65h-169v-253h192v-67h-269v674h257v-67h-180v-222h169z" />
    <glyph glyph-name="afii10024" unicode="&#x416;" horiz-adv-x="589" 
d="M13 674h85l146 -307h14v307h72v-307h15l145 307h85l-173 -314c87 -15 117 -97 134 -179c13 -61 24 -123 45 -181h-76c-17 39 -29 119 -39 162c-16 76 -40 149 -125 149h-11v-311h-72v311h-10c-87 0 -110 -73 -127 -149c-10 -43 -22 -123 -39 -162h-74
c21 58 31 120 44 181c17 82 49 164 135 179z" />
    <glyph glyph-name="afii10025" unicode="&#x417;" horiz-adv-x="381" 
d="M48 580l-20 59c30 23 78 43 138 43c106 0 165 -69 165 -162c0 -73 -49 -139 -118 -160v-2c86 -15 139 -82 139 -173c0 -120 -84 -193 -203 -193c-47 0 -98 12 -131 33l19 64c27 -17 62 -31 107 -31c83 0 129 53 129 127c0 90 -67 136 -153 136h-21v62h15
c70 0 139 54 139 126c0 64 -40 106 -106 106c-36 0 -73 -18 -99 -35z" />
    <glyph glyph-name="afii10026" unicode="&#x418;" horiz-adv-x="464" 
d="M60 674h70v-241c0 -117 -3 -203 -9 -309h2c23 73 59 162 87 235l121 315h72v-674h-69v233c0 144 2 228 8 318h-2c-24 -84 -55 -158 -81 -226l-126 -325h-73v674z" />
    <glyph glyph-name="afii10027" unicode="&#x419;" horiz-adv-x="464" 
d="M60 674h70v-241c0 -117 -3 -203 -9 -309h2c23 73 59 162 87 235l121 315h72v-674h-69v233c0 144 2 228 8 318h-2c-24 -84 -55 -158 -81 -226l-126 -325h-73v674zM119 796h56c5 -29 17 -56 57 -56c37 0 52 26 56 56h57c-9 -66 -46 -97 -114 -97c-64 0 -106 31 -112 97z
" />
    <glyph glyph-name="afii10028" unicode="&#x41a;" horiz-adv-x="391" 
d="M60 674h76v-306h14l144 306h83l-165 -316c83 -18 110 -89 127 -171c14 -63 24 -129 45 -187h-78c-16 44 -27 111 -39 168c-16 81 -39 143 -119 143h-12v-311h-76v674z" />
    <glyph glyph-name="afii10029" unicode="&#x41b;" horiz-adv-x="432" 
d="M81 674h290v-674h-77v607h-142v-230c0 -175 -6 -311 -82 -364c-17 -13 -38 -21 -62 -21l-15 65c13 2 26 8 36 17c41 36 52 126 52 292v308z" />
    <glyph glyph-name="afii10030" unicode="&#x41c;" horiz-adv-x="599" 
d="M482 0l-14 290c-5 89 -10 188 -7 264h-4c-15 -75 -33 -155 -54 -234l-83 -316h-49l-79 303c-22 86 -42 169 -55 247h-3c0 -79 -4 -173 -8 -269l-13 -285h-69l40 674h83l79 -308c23 -89 40 -155 54 -232h3c13 77 28 141 50 232l76 308h86l39 -674h-72z" />
    <glyph glyph-name="afii10031" unicode="&#x41d;" horiz-adv-x="463" 
d="M60 674h77v-289h189v289h77v-674h-77v315h-189v-315h-77v674z" />
    <glyph glyph-name="afii10032" unicode="&#x41e;" horiz-adv-x="446" 
d="M230 682c115 0 184 -125 184 -340c0 -253 -87 -350 -195 -350c-112 0 -187 119 -187 346c0 223 80 344 198 344zM223 614c-84 0 -111 -140 -111 -277c0 -139 27 -277 112 -277c87 0 110 147 110 279c0 126 -23 275 -111 275z" />
    <glyph glyph-name="afii10033" unicode="&#x41f;" horiz-adv-x="458" 
d="M60 674h338v-674h-77v607h-184v-607h-77v674z" />
    <glyph glyph-name="afii10034" unicode="&#x420;" horiz-adv-x="399" 
d="M60 0v664c31 8 68 13 112 13c62 0 114 -15 149 -50c33 -32 50 -81 50 -139c0 -62 -15 -104 -41 -138c-37 -50 -99 -75 -159 -75c-13 0 -23 0 -34 1v-276h-77zM137 609v-268c9 -2 17 -3 30 -3c76 0 127 50 127 145c0 69 -29 131 -114 131c-18 0 -33 -2 -43 -5z" />
    <glyph glyph-name="afii10035" unicode="&#x421;" horiz-adv-x="373" 
d="M342 77l12 -65c-21 -11 -54 -18 -96 -18c-132 0 -226 106 -226 335c0 266 132 351 238 351c41 0 70 -8 84 -17l-17 -65c-16 7 -33 14 -68 14c-72 0 -156 -70 -156 -276s76 -274 158 -274c29 0 55 7 71 15z" />
    <glyph glyph-name="afii10036" unicode="&#x422;" horiz-adv-x="354" 
d="M139 0v605h-123v69h323v-69h-123v-605h-77z" />
    <glyph glyph-name="afii10037" unicode="&#x423;" horiz-adv-x="369" 
d="M5 674h83l80 -275c13 -43 22 -80 31 -118h3c8 33 16 77 25 119l60 274h78l-80 -302c-21 -74 -49 -196 -95 -285c-30 -59 -76 -98 -127 -98c-14 0 -26 2 -36 5l4 62c5 -1 12 -2 20 -2c55 0 92 78 106 127c4 12 4 23 -1 38z" />
    <glyph glyph-name="afii10038" unicode="&#x424;" horiz-adv-x="507" 
d="M219 693h71v-53c103 -10 186 -100 186 -299c0 -228 -95 -294 -188 -304v-56h-70v56c-94 12 -186 73 -186 301c0 213 97 292 187 302v53zM219 94v489c-56 -8 -109 -71 -109 -248c0 -161 50 -229 109 -241zM289 583v-489c65 11 109 77 109 248c0 174 -59 235 -109 241z" />
    <glyph glyph-name="afii10039" unicode="&#x425;" horiz-adv-x="392" 
d="M378 0h-81l-61 162c-14 37 -26 72 -41 118h-3c-15 -45 -28 -84 -41 -120l-58 -160h-79l139 344l-134 330h80l60 -156c13 -31 24 -63 40 -107h2c15 47 25 77 36 110l55 153h79l-132 -328z" />
    <glyph glyph-name="afii10040" unicode="&#x426;" horiz-adv-x="470" 
d="M60 674h77v-607h184v607h76v-608l45 -1l-4 -205h-61l-4 140h-313v674z" />
    <glyph glyph-name="afii10041" unicode="&#x427;" horiz-adv-x="436" 
d="M54 674h76v-229c0 -64 21 -116 91 -116c27 0 57 8 78 21v324h76v-681h-75v295h-4c-32 -15 -65 -24 -100 -24c-88 0 -142 53 -142 166v244z" />
    <glyph glyph-name="afii10042" unicode="&#x428;" horiz-adv-x="632" 
d="M60 674h76v-607h143v607h75v-607h143v607h75v-674h-512v674z" />
    <glyph glyph-name="afii10043" unicode="&#x429;" horiz-adv-x="644" 
d="M60 674h76v-607h143v607h75v-607h143v607h75v-608l44 -1l-3 -205h-61l-5 140h-487v674z" />
    <glyph glyph-name="afii10044" unicode="&#x42a;" horiz-adv-x="512" 
d="M15 674h217v-268c16 2 34 3 51 3c123 0 202 -79 202 -200c0 -61 -17 -110 -49 -145c-38 -45 -99 -68 -180 -68c-49 0 -79 3 -100 7v605h-141v66zM233 342v-280c12 -2 25 -3 39 -3c86 0 133 63 133 146s-52 140 -134 140c-12 0 -25 -1 -38 -3z" />
    <glyph glyph-name="afii10045" unicode="&#x42b;" horiz-adv-x="586" 
d="M60 674h77v-269c16 3 34 4 49 4c120 0 200 -78 200 -199c0 -61 -18 -108 -48 -144c-39 -45 -101 -70 -181 -70c-46 0 -76 3 -97 7v671zM137 342v-280c13 -3 24 -3 36 -3c85 0 133 62 133 146c0 83 -52 140 -132 140c-13 0 -26 -1 -37 -3zM448 675h77v-675h-77v675z" />
    <glyph glyph-name="afii10046" unicode="&#x42c;" horiz-adv-x="417" 
d="M60 674h77v-268c14 2 31 3 51 3c123 0 201 -77 201 -200c0 -61 -17 -107 -48 -143c-39 -45 -100 -70 -181 -70c-49 0 -79 3 -100 7v671zM137 342v-280c13 -3 24 -3 37 -3c86 0 136 62 136 146c0 82 -52 140 -135 140c-14 0 -27 -1 -38 -3z" />
    <glyph glyph-name="afii10047" unicode="&#x42d;" horiz-adv-x="387" 
d="M73 311v69h204c0 92 -34 232 -151 232c-25 0 -52 -6 -73 -16l-20 63c24 11 56 22 96 22c188 0 227 -192 227 -341c0 -171 -70 -347 -240 -347c-42 0 -78 12 -99 23l18 63c19 -9 42 -17 77 -17c128 0 162 152 164 249h-203z" />
    <glyph glyph-name="afii10048" unicode="&#x42e;" horiz-adv-x="604" 
d="M60 674h76v-288h74c11 196 86 296 187 296c109 0 176 -125 176 -340c0 -253 -84 -350 -186 -350c-100 0 -173 106 -177 325h-74v-317h-76v674zM391 60h1c80 0 103 147 103 279c0 126 -23 275 -104 275s-105 -148 -105 -276c0 -131 24 -278 105 -278z" />
    <glyph glyph-name="afii10049" unicode="&#x42f;" horiz-adv-x="406" 
d="M91 0h-80c10 21 17 45 23 70c17 70 20 165 65 219c13 16 32 28 51 33v2c-65 20 -114 73 -114 164c0 67 26 118 66 149c34 26 80 40 134 40c37 0 77 -3 110 -12v-665h-77v294h-28c-31 0 -57 -7 -77 -31c-35 -43 -41 -143 -55 -204c-4 -20 -9 -40 -18 -59zM269 354v257
c-10 2 -22 4 -40 4c-79 0 -115 -56 -115 -129c0 -82 54 -133 128 -133c10 0 17 0 27 1z" />
    <glyph glyph-name="afii10023" unicode="&#x401;" horiz-adv-x="354" 
d="M306 385v-65h-169v-253h192v-67h-269v674h257v-67h-180v-222h169zM109 725h-1c-24 0 -42 18 -42 46c0 27 19 47 43 47c26 0 43 -20 43 -47c0 -28 -17 -46 -43 -46zM271 725h-1c-24 0 -43 18 -43 46c0 27 19 47 44 47c26 0 43 -20 43 -47c0 -28 -17 -46 -43 -46z" />
    <glyph glyph-name="afii10051" unicode="&#x402;" horiz-adv-x="486" 
d="M16 674h356v-70h-158v-192h2c20 12 49 23 81 23c53 0 101 -32 129 -91c29 -61 33 -120 33 -178c0 -78 -18 -157 -58 -211c-36 -50 -79 -74 -111 -84l-19 64c31 13 56 37 75 69c21 34 33 90 33 166c0 60 -6 104 -25 143c-16 34 -47 55 -81 55c-21 0 -41 -7 -59 -19v-349
h-77v604h-121v70z" />
    <glyph glyph-name="afii10052" unicode="&#x403;" horiz-adv-x="339" 
d="M60 674h264v-67h-187v-607h-77v674zM225 818h91l-124 -108h-61z" />
    <glyph glyph-name="afii10053" unicode="&#x404;" horiz-adv-x="384" 
d="M355 661l-17 -65c-15 9 -41 16 -63 16c-125 0 -163 -144 -165 -235h204v-67h-203c3 -97 38 -247 162 -247c31 0 61 7 80 15l13 -63c-20 -9 -54 -22 -98 -22c-165 0 -236 158 -236 346c0 152 58 342 240 342c41 0 63 -10 83 -20z" />
    <glyph glyph-name="afii10054" unicode="&#x405;" horiz-adv-x="361" 
d="M28 23l17 66c23 -15 63 -27 97 -27c70 0 112 46 112 114c0 62 -36 100 -89 140c-53 37 -127 100 -127 187c0 102 71 177 178 177c42 0 79 -13 95 -25l-19 -66c-17 12 -45 23 -80 23c-66 0 -97 -50 -97 -96c0 -67 35 -93 99 -139c81 -57 117 -119 117 -194
c0 -116 -82 -189 -189 -189c-46 0 -95 15 -114 29z" />
    <glyph glyph-name="afii10055" unicode="&#x406;" horiz-adv-x="199" 
d="M60 674h77v-674h-77v674z" />
    <glyph glyph-name="afii10056" unicode="&#x407;" horiz-adv-x="199" 
d="M60 674h77v-674h-77v674zM19 725h-1c-24 0 -42 18 -42 46c0 27 19 47 43 47c26 0 43 -20 43 -47c0 -28 -17 -46 -43 -46zM181 725h-1c-24 0 -43 18 -43 46c0 27 19 47 44 47c26 0 43 -20 43 -47c0 -28 -17 -46 -43 -46z" />
    <glyph glyph-name="afii10057" unicode="&#x408;" horiz-adv-x="265" 
d="M134 189v485h77v-484c0 -151 -61 -198 -158 -198c-19 0 -37 2 -50 7l7 65c10 -3 23 -4 37 -4c55 0 87 22 87 129z" />
    <glyph glyph-name="afii10058" unicode="&#x409;" horiz-adv-x="635" 
d="M80 674h274v-268c15 2 34 3 51 3c122 0 201 -79 201 -200c0 -61 -17 -108 -48 -144c-39 -44 -100 -69 -180 -69c-50 0 -80 3 -100 7v604h-126v-231c0 -174 -8 -310 -83 -364c-17 -12 -41 -20 -60 -20l-16 64c12 4 27 10 37 20c38 35 50 122 50 291v307zM354 342v-280
c13 -3 25 -3 39 -3c87 0 134 63 134 147c0 82 -53 139 -135 139c-12 0 -24 -1 -38 -3z" />
    <glyph glyph-name="afii10059" unicode="&#x40a;" horiz-adv-x="669" 
d="M60 674h77v-280h174v280h76v-272c16 2 34 3 51 3c121 0 201 -75 201 -196c0 -61 -17 -108 -48 -144c-39 -44 -100 -69 -180 -69c-49 0 -80 3 -100 7v323h-174v-326h-77v674zM387 338v-276c13 -3 25 -3 39 -3c87 0 134 63 134 146c0 84 -53 136 -135 136
c-12 0 -24 -1 -38 -3z" />
    <glyph glyph-name="afii10060" unicode="&#x40b;" horiz-adv-x="501" 
d="M16 674h346v-70h-150v-206h2c26 19 63 37 104 37c43 0 74 -16 94 -42c25 -32 36 -78 36 -129v-264h-76v256c0 40 -5 67 -21 88c-12 17 -32 26 -58 26c-33 0 -62 -16 -81 -30v-340h-77v604h-119v70z" />
    <glyph glyph-name="afii10061" unicode="&#x40c;" horiz-adv-x="391" 
d="M60 674h76v-306h14l144 306h83l-165 -316c83 -18 110 -89 127 -171c14 -63 24 -129 45 -187h-78c-16 44 -27 111 -39 168c-16 81 -39 143 -119 143h-12v-311h-76v674zM247 813h91l-124 -108h-61z" />
    <glyph glyph-name="afii10062" unicode="&#x40e;" horiz-adv-x="369" 
d="M5 674h83l80 -275c13 -43 22 -80 31 -118h3c8 33 16 77 25 119l60 274h78l-80 -302c-21 -74 -49 -196 -95 -285c-30 -59 -76 -98 -127 -98c-14 0 -26 2 -36 5l4 62c5 -1 12 -2 20 -2c55 0 92 78 106 127c4 12 4 23 -1 38zM74 791h56c5 -29 17 -56 57 -56
c37 0 52 26 56 56h57c-9 -66 -46 -97 -114 -97c-64 0 -106 31 -112 97z" />
    <glyph glyph-name="afii10145" unicode="&#x40f;" horiz-adv-x="458" 
d="M60 674h77v-607h185v607h76v-674h-132l-5 -143h-64l-5 143h-132v674z" />
    <glyph glyph-name="afii10065" unicode="&#x430;" horiz-adv-x="364" 
d="M310 319v-209c0 -37 0 -79 5 -110h-70l-5 51h-3c-21 -37 -55 -59 -96 -59c-65 0 -115 55 -115 138c0 121 97 175 206 176v15c0 65 -16 110 -77 110c-30 0 -57 -10 -80 -25l-17 54c20 15 65 32 113 32c97 0 139 -64 139 -173zM234 152v98c-40 0 -133 -7 -133 -112
c0 -63 32 -86 59 -86c34 0 63 25 72 73c2 9 2 19 2 27z" />
    <glyph glyph-name="afii10066" unicode="&#x431;" horiz-adv-x="388" 
d="M324 700l-4 -67c-20 -8 -55 -14 -88 -23c-53 -12 -81 -39 -100 -80c-18 -39 -26 -85 -30 -126h2c16 43 59 80 110 80c79 0 141 -68 141 -238s-61 -255 -156 -255c-134 0 -162 169 -162 295c0 113 12 210 46 277c30 60 73 95 135 111c33 9 82 16 106 26zM278 238v1
c0 70 -13 182 -82 182c-35 0 -57 -24 -68 -54c-13 -33 -16 -74 -16 -103c0 -55 10 -210 86 -210c69 0 80 119 80 184z" />
    <glyph glyph-name="afii10067" unicode="&#x432;" horiz-adv-x="394" 
d="M54 -2v484c31 6 70 10 109 10c80 0 180 -23 180 -120c0 -58 -41 -101 -96 -115v-2c70 -12 116 -55 116 -121c0 -113 -117 -141 -210 -141c-45 0 -80 2 -99 5zM129 432v-153h35c46 0 105 31 105 82c0 56 -46 75 -100 75c-14 0 -27 -2 -40 -4zM128 224v-173
c9 -1 24 -3 40 -3c59 0 118 21 118 86s-64 90 -125 90h-33z" />
    <glyph glyph-name="afii10068" unicode="&#x433;" horiz-adv-x="292" 
d="M54 484h225v-66h-149v-418h-76v484z" />
    <glyph glyph-name="afii10098" unicode="&#x491;" horiz-adv-x="289" 
d="M54 484h162l11 95h56l-7 -160h-146v-419h-76v484z" />
    <glyph glyph-name="afii10069" unicode="&#x434;" horiz-adv-x="417" 
d="M106 484h246v-424l41 -1l-5 -188h-58l-5 129h-250l-5 -129h-59l-4 188l32 1c20 32 35 67 45 103c15 55 22 114 22 179v142zM174 422v-71c0 -67 -4 -133 -20 -192c-9 -35 -22 -68 -39 -98h161v361h-102z" />
    <glyph glyph-name="afii10070" unicode="&#x435;" horiz-adv-x="363" 
d="M333 235h-225c1 -148 59 -180 115 -180c33 0 61 8 80 19l12 -57c-27 -15 -68 -23 -106 -23c-116 0 -176 95 -176 243c0 157 66 255 163 255c99 0 138 -104 138 -214c0 -18 0 -31 -1 -43zM109 292h151c2 97 -35 140 -72 140c-50 0 -76 -74 -79 -140z" />
    <glyph glyph-name="afii10072" unicode="&#x436;" horiz-adv-x="536" 
d="M13 484h84l118 -213h16v213h74v-213h17l117 213h85l-145 -222c61 -12 94 -66 110 -132c11 -47 25 -100 39 -130h-75c-13 23 -23 63 -33 107c-22 84 -57 112 -107 112h-8v-219h-74v219h-8c-68 0 -85 -36 -109 -117c-10 -42 -18 -75 -31 -102h-75c16 33 29 85 40 126
c17 64 48 124 109 136z" />
    <glyph glyph-name="afii10073" unicode="&#x437;" horiz-adv-x="337" 
d="M84 223v56h27c47 0 99 30 99 83c0 48 -33 72 -78 72c-30 0 -61 -11 -85 -25l-16 49c32 22 77 34 120 34c79 0 136 -45 136 -121c0 -59 -43 -99 -99 -114v-1c67 -10 117 -53 117 -122c0 -97 -89 -142 -178 -142c-40 0 -82 10 -114 27l18 55c23 -12 57 -24 90 -24
c65 0 106 39 106 84c0 66 -59 89 -114 89h-29z" />
    <glyph glyph-name="afii10074" unicode="&#x438;" horiz-adv-x="406" 
d="M54 484h70v-166c0 -84 -1 -156 -6 -232h2c22 64 50 133 71 188l81 210h81v-484h-71v159c0 104 2 162 7 236h-2c-18 -60 -37 -114 -58 -167c-16 -40 -60 -150 -96 -228h-79v484z" />
    <glyph glyph-name="afii10075" unicode="&#x439;" horiz-adv-x="406" 
d="M54 484h70v-166c0 -84 -1 -156 -6 -232h2c22 64 50 133 71 188l81 210h81v-484h-71v159c0 104 2 162 7 236h-2c-18 -60 -37 -114 -58 -167c-16 -40 -60 -150 -96 -228h-79v484zM90 667h54c4 -43 23 -67 59 -67c38 0 56 26 60 67h54c-9 -79 -50 -111 -115 -111
c-63 0 -103 32 -112 111z" />
    <glyph glyph-name="afii10076" unicode="&#x43a;" horiz-adv-x="367" 
d="M54 484h75v-210h11l127 210h86l-151 -218c66 -11 99 -70 117 -137c11 -41 24 -92 40 -129h-78c-13 30 -24 70 -35 113c-19 66 -46 105 -109 105h-8v-218h-75v484z" />
    <glyph glyph-name="afii10077" unicode="&#x43b;" horiz-adv-x="383" 
d="M73 484h257v-484h-77v420h-106v-153c0 -137 -10 -228 -82 -263c-15 -7 -33 -11 -51 -11l-14 61c19 3 31 12 41 22c28 29 32 97 32 186v222z" />
    <glyph glyph-name="afii10078" unicode="&#x43c;" horiz-adv-x="538" 
d="M38 0l34 484h91l63 -213c17 -56 29 -95 44 -154h2c15 62 24 97 41 154l61 213h93l33 -484h-73l-9 208c-3 64 -5 111 -7 203h-3c-11 -50 -28 -115 -48 -186l-65 -222h-56l-63 215c-20 67 -37 135 -50 194h-2c-1 -78 -3 -140 -7 -208l-8 -204h-71z" />
    <glyph glyph-name="afii10079" unicode="&#x43d;" horiz-adv-x="405" 
d="M54 484h77v-205h143v205h77v-484h-77v213h-143v-213h-77v484z" />
    <glyph glyph-name="afii10080" unicode="&#x43e;" horiz-adv-x="383" 
d="M195 492c86 0 156 -81 156 -250c0 -187 -87 -250 -161 -250c-87 0 -157 79 -157 249c0 177 79 251 162 251zM192 430c-69 0 -82 -114 -82 -188c0 -80 14 -189 84 -189c66 0 79 114 79 189c0 74 -13 188 -81 188z" />
    <glyph glyph-name="afii10081" unicode="&#x43f;" horiz-adv-x="400" 
d="M54 484h292v-484h-76v419h-139v-419h-77v484z" />
    <glyph glyph-name="afii10082" unicode="&#x440;" horiz-adv-x="399" 
d="M53 -192v525c0 74 -3 117 -4 151h69l4 -62h2c26 52 64 70 102 70c84 0 140 -90 140 -249c0 -179 -74 -251 -150 -251c-45 0 -71 29 -84 56h-2v-240h-77zM130 301v-123c0 -15 0 -29 3 -40c15 -69 50 -82 71 -82c64 0 84 88 84 186c0 100 -24 184 -85 184
c-35 0 -66 -44 -71 -88c-2 -12 -2 -24 -2 -37z" />
    <glyph glyph-name="afii10083" unicode="&#x441;" horiz-adv-x="302" 
d="M280 71l10 -59c-17 -10 -46 -18 -80 -18c-106 0 -177 85 -177 245c0 139 70 252 191 252c26 0 54 -7 68 -15l-15 -63c-10 5 -30 13 -55 13c-77 0 -112 -92 -112 -187c0 -113 43 -181 114 -181c21 0 38 5 56 13z" />
    <glyph glyph-name="afii10084" unicode="&#x442;" horiz-adv-x="317" 
d="M10 484h297v-65h-110v-419h-77v419h-110v65z" />
    <glyph glyph-name="afii10085" unicode="&#x443;" horiz-adv-x="346" 
d="M13 484h81l64 -278c9 -38 14 -70 20 -100h2c5 27 13 64 21 99l57 279h76l-79 -311c-30 -122 -63 -239 -120 -312c-34 -43 -70 -66 -87 -74l-28 66c22 12 46 33 68 61c20 25 36 58 44 81c4 12 5 17 5 24c0 6 0 12 -2 18z" />
    <glyph glyph-name="afii10086" unicode="&#x444;" horiz-adv-x="477" 
d="M204 684h70l-1 -192c102 -13 172 -93 172 -251c0 -156 -66 -236 -172 -249l1 -184h-70v184c-104 11 -171 91 -171 249c0 155 67 235 171 250v193zM204 45v394c-78 -20 -99 -117 -99 -197c0 -81 21 -178 99 -197zM273 438v-393c78 19 99 113 99 197c0 80 -20 176 -99 196z
" />
    <glyph glyph-name="afii10087" unicode="&#x445;" horiz-adv-x="340" 
d="M14 484h83l45 -104c12 -28 21 -56 32 -85h2c11 31 22 59 32 85l44 104h79l-115 -239l114 -245h-84l-46 109c-11 26 -20 51 -32 83h-2c-10 -29 -21 -55 -32 -83l-45 -109h-78l115 243z" />
    <glyph glyph-name="afii10088" unicode="&#x446;" horiz-adv-x="411" 
d="M54 484h77v-420h138v420h77v-424l41 -1l-5 -188h-58l-5 129h-265v484z" />
    <glyph glyph-name="afii10089" unicode="&#x447;" horiz-adv-x="393" 
d="M47 484h77v-185c0 -49 13 -86 67 -86c28 0 52 10 71 22v249h77v-486h-76v181h-3c-23 -16 -59 -25 -92 -25c-74 0 -121 44 -121 133v197z" />
    <glyph glyph-name="afii10090" unicode="&#x448;" horiz-adv-x="590" 
d="M54 484h76v-420h127v420h76v-420h128v420h76v-484h-483v484z" />
    <glyph glyph-name="afii10091" unicode="&#x449;" horiz-adv-x="602" 
d="M54 484h76v-420h127v420h76v-420h128v420h76v-424l40 -1l-4 -188h-59l-5 129h-455v484z" />
    <glyph glyph-name="afii10092" unicode="&#x44a;" horiz-adv-x="464" 
d="M13 484h193v-171c19 1 33 3 47 3c97 0 184 -48 184 -154c0 -54 -21 -94 -53 -120c-41 -33 -97 -47 -155 -47c-33 0 -68 3 -99 8v417h-117v64zM206 254v-196c12 -2 22 -3 36 -3c62 0 116 32 116 102c0 71 -56 99 -120 99c-12 0 -22 -1 -32 -2z" />
    <glyph glyph-name="afii10093" unicode="&#x44b;" horiz-adv-x="528" 
d="M54 484h76v-171c8 1 26 3 46 3c93 0 174 -52 174 -154c0 -54 -21 -94 -54 -120c-40 -33 -97 -47 -143 -47c-33 0 -68 3 -99 8v481zM130 254v-196c12 -2 22 -3 34 -3c57 0 107 38 107 102c0 66 -51 99 -109 99c-13 0 -22 0 -32 -2zM400 484h74v-484h-74v484z" />
    <glyph glyph-name="afii10094" unicode="&#x44c;" horiz-adv-x="388" 
d="M54 484h76v-171c19 1 33 3 46 3c99 0 185 -48 185 -156c0 -52 -21 -92 -53 -118c-41 -33 -97 -47 -155 -47c-33 0 -68 3 -99 8v481zM130 254v-197c12 -1 22 -2 34 -2c64 0 118 32 118 102c0 71 -56 99 -120 99c-13 0 -22 -1 -32 -2z" />
    <glyph glyph-name="afii10095" unicode="&#x44d;" horiz-adv-x="324" 
d="M49 219v56h164c-2 73 -32 155 -115 155c-27 0 -49 -7 -65 -13l-12 53c19 12 56 22 91 22c55 0 102 -27 132 -69c33 -47 48 -112 48 -178c0 -128 -63 -252 -194 -252c-27 0 -64 7 -86 21l14 56c18 -8 42 -14 69 -14c67 0 116 68 118 163h-164z" />
    <glyph glyph-name="afii10096" unicode="&#x44e;" horiz-adv-x="524" 
d="M54 484h75v-203h60c12 149 80 211 152 211c83 0 150 -81 150 -250c0 -187 -84 -250 -153 -250c-78 0 -144 71 -149 227h-60v-219h-75v484zM339 53h1c62 0 75 114 75 189c0 74 -13 188 -77 188c-63 0 -77 -114 -77 -188c0 -80 15 -189 78 -189z" />
    <glyph glyph-name="afii10097" unicode="&#x44f;" horiz-adv-x="379" 
d="M325 481v-481h-74v207h-23c-35 0 -57 -9 -70 -23c-33 -29 -38 -89 -55 -148c-3 -14 -8 -26 -13 -36h-81c9 15 16 29 22 50c13 47 22 113 56 150c13 14 34 28 59 32v2c-56 12 -107 49 -107 119c0 46 18 77 50 101c28 23 81 36 133 36c39 0 76 -3 103 -9zM251 259v174
c-11 3 -22 4 -33 4c-54 0 -102 -25 -102 -86c0 -59 53 -92 105 -92h30z" />
    <glyph glyph-name="afii10071" unicode="&#x451;" horiz-adv-x="363" 
d="M120 566h-1c-24 0 -44 19 -44 44c0 26 20 45 45 45c24 0 42 -18 42 -45c0 -25 -18 -44 -42 -44zM275 566h-1c-24 0 -43 19 -43 44c0 26 20 45 44 45s43 -18 43 -45c0 -25 -18 -44 -43 -44zM333 235h-225c1 -148 59 -180 115 -180c33 0 61 8 80 19l12 -57
c-27 -15 -68 -23 -106 -23c-116 0 -176 95 -176 243c0 157 66 255 163 255c99 0 138 -104 138 -214c0 -18 0 -31 -1 -43zM109 292h151c2 97 -35 140 -72 140c-50 0 -76 -74 -79 -140z" />
    <glyph glyph-name="afii10099" unicode="&#x452;" horiz-adv-x="414" 
d="M12 614h52v78h77v-78h175v-54h-175v-130h2c21 34 58 59 100 59c46 0 82 -24 105 -76c20 -43 30 -109 30 -192c0 -128 -20 -218 -71 -281c-26 -33 -68 -58 -97 -62l-19 62c18 4 45 18 63 45c31 46 47 130 47 231c0 49 -2 107 -21 156c-12 31 -31 52 -61 52
c-24 0 -43 -15 -55 -34c-17 -25 -23 -57 -23 -81v-309h-77v560h-52v54z" />
    <glyph glyph-name="afii10100" unicode="&#x453;" horiz-adv-x="292" 
d="M54 484h225v-66h-149v-418h-76v484zM201 682h79l-105 -135h-51z" />
    <glyph glyph-name="afii10101" unicode="&#x454;" horiz-adv-x="331" 
d="M318 470l-18 -56c-13 8 -35 17 -64 17c-87 0 -122 -86 -124 -156h170v-56h-171c3 -97 51 -165 125 -165c23 0 50 7 66 16l15 -56c-24 -13 -53 -21 -92 -21c-133 0 -192 123 -192 249s61 250 202 250c32 0 66 -10 83 -22z" />
    <glyph glyph-name="afii10102" unicode="&#x455;" horiz-adv-x="289" 
d="M22 22l19 58c17 -11 47 -25 78 -25c44 0 71 27 71 70c0 37 -13 62 -62 95c-63 41 -97 82 -97 138c0 78 58 134 133 134c38 0 67 -13 87 -25l-21 -58c-18 12 -39 21 -64 21c-42 0 -63 -30 -63 -61c0 -33 12 -51 60 -84c56 -36 100 -80 100 -147c0 -97 -66 -144 -145 -144
c-36 0 -75 11 -96 28z" />
    <glyph glyph-name="afii10103" unicode="&#x456;" horiz-adv-x="184" 
d="M131 0h-77v484h77v-484zM91 659c28 0 46 -20 46 -50c1 -30 -18 -50 -47 -50c-25 0 -44 20 -44 50s20 50 45 50z" />
    <glyph glyph-name="afii10104" unicode="&#x457;" horiz-adv-x="184" 
d="M16 566h-1c-24 0 -44 19 -44 44c0 26 20 45 45 45c24 0 42 -18 42 -45c0 -25 -18 -44 -42 -44zM171 566h-1c-24 0 -43 19 -43 44c0 26 20 45 44 45s43 -18 43 -45c0 -25 -18 -44 -43 -44zM131 0h-77v484h77v-484z" />
    <glyph glyph-name="afii10105" unicode="&#x458;" horiz-adv-x="188" 
d="M-18 -200l-10 61c22 6 49 14 65 38c17 26 23 62 23 154v431h77v-453c0 -102 -15 -149 -49 -185c-29 -30 -76 -45 -106 -46zM99 659c27 0 45 -20 45 -50s-18 -50 -47 -50c-25 0 -45 20 -44 50c-1 30 19 50 46 50z" />
    <glyph glyph-name="afii10106" unicode="&#x459;" horiz-adv-x="590" 
d="M73 484h259v-171c19 1 32 3 45 3c99 0 186 -48 186 -156c0 -52 -21 -91 -53 -117c-41 -34 -100 -48 -158 -48c-33 0 -66 3 -96 8v417h-109v-153c0 -139 -10 -228 -82 -263c-14 -7 -33 -11 -51 -11l-14 61c19 3 31 12 41 22c28 28 32 92 32 186v222zM332 254v-196
c12 -2 22 -3 34 -3c64 0 118 32 118 102c0 71 -56 99 -121 99c-12 0 -21 -1 -31 -2z" />
    <glyph glyph-name="afii10107" unicode="&#x45a;" horiz-adv-x="601" 
d="M54 484h77v-188h136v188h76v-176c19 1 33 3 47 3c98 0 184 -49 184 -155c0 -51 -21 -88 -53 -115c-41 -32 -100 -46 -158 -46c-33 0 -65 3 -96 7v231h-136v-233h-77v484zM343 249v-191c12 -2 22 -3 38 -3c60 0 114 32 114 100c0 69 -57 96 -121 96c-12 0 -21 -1 -31 -2z
" />
    <glyph glyph-name="afii10108" unicode="&#x45b;" horiz-adv-x="415" 
d="M12 614h52v78h77v-78h175v-54h-175v-130h2c10 17 25 32 40 42c18 11 37 17 65 17c61 0 113 -49 113 -169v-320h-77v310c0 59 -13 114 -65 114c-43 0 -66 -36 -75 -77c-2 -10 -3 -27 -3 -41v-306h-77v560h-52v54z" />
    <glyph glyph-name="afii10109" unicode="&#x45c;" horiz-adv-x="367" 
d="M54 484h75v-210h11l127 210h86l-151 -218c66 -11 99 -70 117 -137c11 -41 24 -92 40 -129h-78c-13 30 -24 70 -35 113c-19 66 -46 105 -109 105h-8v-218h-75v484zM221 682h79l-105 -135h-51z" />
    <glyph glyph-name="afii10110" unicode="&#x45e;" horiz-adv-x="346" 
d="M60 667h54c4 -43 23 -67 59 -67c38 0 56 26 60 67h54c-9 -79 -50 -111 -115 -111c-63 0 -103 32 -112 111zM13 484h81l64 -278c9 -38 14 -70 20 -100h2c5 27 13 64 21 99l57 279h76l-79 -311c-30 -122 -63 -239 -120 -312c-34 -43 -70 -66 -87 -74l-28 66
c22 12 46 33 68 61c20 25 36 58 44 81c4 12 5 17 5 24c0 6 0 12 -2 18z" />
    <glyph glyph-name="afii10193" unicode="&#x45f;" horiz-adv-x="400" 
d="M54 484h77v-420h138v420h77v-484h-111l-5 -133h-59l-6 133h-111v484z" />
    <glyph glyph-name="afii10846" unicode="&#x4d9;" horiz-adv-x="328" 
d="M60 411l-13 54c30 17 70 27 108 27c115 0 175 -96 175 -244c0 -156 -66 -254 -163 -254c-98 0 -139 104 -139 213c0 15 2 32 3 42h223c0 150 -57 181 -113 181c-34 0 -62 -9 -81 -19zM254 192h-152c-1 -95 36 -138 73 -138c51 0 75 73 79 138z" />
    <glyph glyph-name="breve.cyrcap" unicode="&#xf6d1;" 
d="M37 813h56c5 -29 17 -56 57 -56c37 0 52 26 56 56h57c-9 -66 -46 -97 -114 -97c-64 0 -106 31 -112 97z" />
    <glyph glyph-name="circumflex.cyrcap" unicode="&#xf6d2;" 
d="M263 715h-56c-5 29 -17 56 -57 56c-37 0 -52 -26 -56 -56h-57c9 66 46 97 114 97c64 0 106 -31 112 -97z" />
    <glyph glyph-name="breve.cyr" unicode="&#xf6d4;" 
d="M37 667h54c4 -43 23 -67 59 -67c38 0 56 26 60 67h54c-9 -79 -50 -111 -115 -111c-63 0 -103 32 -112 111z" />
    <glyph glyph-name="circumflex.cyr" unicode="&#xf6d5;" 
d="M91 563h-54c8 80 49 112 115 112c63 0 103 -32 112 -112h-54c-4 43 -24 68 -59 68c-38 0 -56 -26 -60 -68z" />
    <glyph glyph-name="Ohorn" unicode="&#x1a0;" horiz-adv-x="446" 
d="M224 60c87 0 110 147 110 279c0 126 -23 275 -111 275c-87 0 -112 -148 -111 -276c-1 -131 24 -278 112 -278zM361 727l59 11c9 -17 16 -41 16 -67c0 -43 -23 -80 -72 -79c28 -49 50 -127 50 -250c0 -253 -87 -350 -195 -350c-112 0 -187 119 -187 346
c0 223 80 344 198 344c24 0 50 -7 71 -18c25 -14 36 -24 49 -24c19 0 26 11 26 32c0 22 -8 40 -15 55z" />
    <glyph glyph-name="Uhorn" unicode="&#x1af;" horiz-adv-x="474" 
d="M406 757l59 9c9 -18 15 -40 15 -65c0 -42 -20 -73 -72 -75l-10 -1v-391c0 -175 -72 -242 -172 -242c-101 0 -167 66 -167 233v449h77v-452c0 -121 40 -162 92 -162c57 0 93 44 93 162v452h62c27 0 36 7 36 29c0 19 -5 38 -13 54z" />
    <glyph glyph-name="ohorn" unicode="&#x1a1;" horiz-adv-x="383" 
d="M192 430c-69 0 -82 -114 -82 -188c0 -80 14 -189 84 -189c66 0 79 114 79 189c0 74 -13 188 -81 188zM315 547l58 10c9 -16 17 -40 17 -66c0 -47 -28 -76 -76 -77c22 -37 37 -97 37 -172c0 -187 -87 -250 -161 -250c-87 0 -157 79 -157 249c0 177 79 251 162 251
c19 0 39 -6 55 -13c14 -6 31 -17 51 -17c16 0 29 10 29 32c0 20 -7 39 -15 53z" />
    <glyph glyph-name="uhorn" unicode="&#x1b0;" horiz-adv-x="398" 
d="M346 569l59 9c9 -16 16 -40 16 -64c0 -40 -21 -72 -71 -74l-6 -1v-307c0 -54 3 -96 4 -132h-67l-5 51h-2c-15 -24 -52 -59 -104 -59c-85 0 -118 66 -118 186v306h77v-295c0 -76 12 -132 65 -132c45 0 65 42 69 64c3 13 4 28 4 44v319h58c27 0 35 10 35 32
c0 18 -6 38 -14 53z" />
    </font>
</defs>
</svg>
